<?xml version="1.0" standalone="no"?>
<!DOCTYPE svg PUBLIC "-//W3C//DTD SVG 1.1//EN" "http://www.w3.org/Graphics/SVG/1.1/DTD/svg11.dtd" >
<!--
2013-9-30: Created.
-->
<svg>
<metadata>
Created by iconfont
</metadata>
<defs>

<font id="element-icons" horiz-adv-x="1024" >
  <font-face
    font-family="element-icons"
    font-weight="500"
    font-stretch="normal"
    units-per-em="1024"
    ascent="896"
    descent="-128"
  />
    <missing-glyph />
    
    <glyph glyph-name="fengge" unicode="&#59383;" d="M512 800C229.696 800 0 570.304 0 288c0-90.368 30.304-174.496 85.344-236.896 55.264-62.624 129.152-97.12 208.128-97.12 81.568 0 161.536 36.832 231.264 106.592l2.272 2.496c65.792 81.472 132.896 121.056 205.088 121.056 46.72 0 89.216-15.872 126.688-29.92 30.336-11.328 56.576-21.12 81.216-21.12C1024 133.08799999999997 1024 241.664 1024 288c0 282.304-229.696 512-512 512z m428-602.912c-13.088 0-35.296 8.288-58.784 17.088-40.48 15.136-90.848 33.952-149.12 33.952-92.352 0-175.328-46.944-253.76-143.456-57.184-56.704-121.056-86.688-184.832-86.688-60.352 0-117.216 26.784-160.128 75.456C88.64 144.12800000000004 64 213.216 64 288 64 535.04 264.96 736 512 736s448-200.96 448-448c0-27.328-1.952-90.912-20-90.912zM800.704 379.93600000000004m-64 0a64 64 0 1 1 128 0 64 64 0 1 1-128 0ZM457.024 582.624m-64 0a64 64 0 1 1 128 0 64 64 0 1 1-128 0ZM672.704 555.9359999999999m-64 0a64 64 0 1 1 128 0 64 64 0 1 1-128 0ZM291.392 443.936m-64 0a64 64 0 1 1 128 0 64 64 0 1 1-128 0ZM278.4 197.24800000000005m-96 0a96 96 0 1 1 192 0 96 96 0 1 1-192 0Z"  horiz-adv-x="1024" />

    
    <glyph glyph-name="niantie" unicode="&#59379;" d="M872.3456 448h-338.056533a150.869333 150.869333 0 0 1-150.664534-150.801067v-274.397866A150.869333 150.869333 0 0 1 534.289067-128h338.158933a150.869333 150.869333 0 0 1 150.664533 150.801067V297.301333a150.971733 150.971733 0 0 1-150.766933 150.698667z m86.698667-425.198933c0-47.786667-38.843733-86.801067-86.698667-86.801067h-338.056533a86.869333 86.869333 0 0 0-86.698667 86.801067V297.301333c0 47.786667 38.843733 86.801067 86.698667 86.801067h338.158933c47.752533 0 86.698667-38.912 86.698667-86.801067v-274.500266h-0.068267zM284.706133 64h-155.648a65.2288 65.2288 0 0 0-65.1264 65.194667V766.805333c0 35.908267 29.184 65.194667 65.1264 65.194667H702.122667c35.84 0 65.1264-29.184 65.1264-65.194667v-223.812266a31.9488 31.9488 0 1 1 63.931733 0V766.805333A129.365333 129.365333 0 0 1 702.122667 896H129.024A129.262933 129.262933 0 0 1 0 766.805333v-637.610666a129.365333 129.365333 0 0 1 129.058133-129.194667h155.648a31.9488 31.9488 0 0 1 31.982934 32.017067 31.9488 31.9488 0 0 1-31.982934 31.982933zM671.3344 704H159.8464a31.9488 31.9488 0 0 1-31.982933-32.017067c0-17.681067 14.301867-31.982933 31.982933-31.982933h511.488a31.9488 31.9488 0 0 1 31.982933 32.017067 31.9488 31.9488 0 0 1-31.982933 31.982933zM351.6416 512h-191.829333a31.9488 31.9488 0 0 1-31.9488-32.017067c0-17.681067 14.301867-31.982933 31.982933-31.982933h191.829333a31.9488 31.9488 0 0 1 31.9488 32.017067 31.9488 31.9488 0 0 1-31.982933 31.982933zM287.744 320H159.812267a31.9488 31.9488 0 0 1-31.982934-32.017067c0-17.681067 14.301867-31.982933 31.982934-31.982933h127.863466a31.9488 31.9488 0 0 1 31.982934 32.017067 31.9488 31.9488 0 0 1-31.982934 31.982933z"  horiz-adv-x="1024" />

    
    <glyph glyph-name="zujian" unicode="&#59380;" d="M764.8-96.2c-15.8 0-32.5 0.2-49.6 0.7-19.7 0.5-32.6 2.3-40.3 10.3-7.6 7.8-9.1 20.1-9.3 40.1V-30c0.2 19.4 0.3 37.7-4 56.1-7.8 33.5-33.4 54.3-66.8 54.3-2 0-4-0.1-6-0.2-34.2-2.5-59.5-28.7-61.7-63.7-0.8-13.3-0.9-27-1-40.2-0.1-10.6-0.1-21.5-0.6-32.3-0.9-24.4-13.3-36.2-38.9-37.2-25.6-1-55.9-2-86.3-2-28.1 0-53.5 0.9-77.4 2.6-36.1 2.6-66.9 15.9-89.1 38.3-22.3 22.7-34.6 53.6-35.5 89.4-0.5 20.9-0.4 42.1-0.3 62.6 0 8.7 0.1 17.3 0.1 26-0.1 15.2-1.4 22.4-4.8 26.3-3.4 3.9-10.2 6-25 7.7-34.8 4.1-63.3 16.1-87.1 36.8-22.3 19.4-37 42.2-43.9 67.9-6.5 24.2-6 50.9 1.5 79.4 7.5 28.4 21.6 51.6 42 69.2 19.3 16.6 44.3 28 74.3 34 8.2 1.7 15.7 2.8 22.9 3.5 14.1 1.4 20.2 8.6 20.1 24.1-0.2 29.3-0.2 56.1 0.1 81.8 0.4 46 12.6 81.7 36.2 105.9 23.7 24.3 59.1 37.4 105.3 38.9 16 0.5 30.3 0.8 43.8 0.8 12.7 0 24.5-0.2 36-0.7 1.1 0 2.3-0.1 3.3-0.1 17.9 0 24.6 6.5 26.6 25.6 7 67.9 42.4 113.7 102.5 132.5 14.8 4.6 29.9 7 44.8 7 35.6 0 69.6-13.6 95.6-38.3 26.3-25 43.3-60.2 47.9-99.3 1.7-14.1 2.9-20.9 6.1-23.8 3.4-3.1 11.6-3.5 23.7-3.7 4-0.1 8.3-0.1 13.1-0.1 6.4 0 12.8 0.1 19.1 0.1 6.3 0.1 12.8 0.1 19.2 0.1 17.9 0 39-0.5 60.2-3.9C945.7 685 988.3 637.6 990 574.5c1-34.6 0.8-69.7 0.7-103.7-0.1-20.3-0.2-41.4-0.1-62 0.2-23.6-12.6-36.6-37-37.4-11.8-0.4-23.8-0.4-35.4-0.4-10.7 0-21.8 0-32.7-0.4-37.1-1.2-65-25.7-67.9-59.5-3.6-41.6 15.9-68.1 56.4-76.6 12-2.5 24.1-2.9 33.2-2.9 5.3 0 10.7 0.1 15.9 0.2 5.3 0.1 10.7 0.3 16.1 0.3h4c20.7-0.3 31.7-1.6 38.7-8.4 7.1-6.9 8.4-17.7 8.4-37.8 0.4-25.6 0.3-51.7 0.2-77v-0.2c0-7.9 0-15.8 0.1-23.7 0.1-17.5 0.2-35.6-0.2-53.5-0.6-32.3-12.5-62.4-33.6-84.9-21.1-22.5-50.3-36.2-82.4-38.8-34.6-2.6-70.5-4-109.6-4zM205.1 366.2c-10 0-23.2-0.4-36.2-3.3-19.1-4.3-32.3-12-40.5-23.5-8.2-11.6-11.4-27-9.7-47.2 1.3-14.9 7.5-27.6 17.9-36.6 10.6-9.1 25.4-14.3 42.7-15 10.9-0.4 22.1-0.4 32.8-0.4 11.5 0 23.4 0 35.2-0.5 23.1-0.9 35.6-13.9 35.2-36.6-0.3-15.8-0.2-31.9-0.1-47.5 0-4.5 0.1-9.1 0.1-13.6 0.1-10.6 0-21.4-0.1-31.8-0.1-25.2-0.3-51.3 1.3-76.7 1.8-30.1 13.4-41.1 44.3-42.1 9.2-0.3 19.2-0.5 30.6-0.5 8.4 0 16.6 0.1 23.6 0.2h6.5c3.7 0 7.1 0 10.3-0.1h7.6c14.2 0 20.8 0.9 25.2 6.3 5.1 6.3 8.2 19 13 43.6 6.1 31.5 22 59.8 45.9 81.9 23.6 21.7 52.7 35.5 84.4 39.9 6.6 0.9 13.4 1.4 20.1 1.4 54 0 104.6-29.8 132-77.9 11.7-20.5 18.9-44.3 22.1-73 1.7-15.4 8.5-22 22.6-22 8.3 0 16.6 0 24.8-0.1 8.1 0 16.4-0.1 24.7-0.1 18.3 0 32.4 0.2 45.7 0.8 24.9 1 35.6 11 38.1 35.7 1.4 13.9 1.3 28.3 1.3 42.2 0 5.3-0.1 10.8 0 16.3 0.4 29.7 0.1 44.5-4.4 51.8-4 6.5-12.1 8.2-31.9 12-4.8 0.9-10.3 1.9-16.4 3.2-35.3 7.3-65.4 25.7-87.1 53.3-21.5 27.3-32.8 60.9-32.7 97.3 0.1 35.1 11.7 67.9 33.6 94.7 21.9 26.8 52 45.1 87 52.8 7.3 1.6 14.7 2.7 21.8 3.7 4.7 0.7 9.5 1.3 14.2 2.2 13.2 2.4 15 8.7 15.1 14 0.1 7.5 0.4 15.1 0.6 22.5 0.8 28.9 1.7 58.7-2.1 87.7-2.6 19.3-13.9 29.4-33.5 30.2-53 1.8-93.5 2.9-131.3 3.5h-1.1c-5.7 0-11.4-0.5-17.4-1-6-0.5-12.1-1.1-18.4-1.1-4 0-7.6 0.2-11.1 0.7-22.9 3.1-34 15.5-34 38 0 4.7 0.1 9.4 0.1 14.1 0.2 18.4 0.3 37.4-0.8 55.9-2 35.1-26.4 57.8-62 57.8-35.4 0-59.8-22.7-62.2-57.8-0.9-11.9-0.7-24.2-0.6-36.1 0-4.4 0.1-9 0.1-13.5 0-24.7-0.6-40.3-9.4-49.1-8.7-8.9-24.5-9.8-49.3-10.4h-70.4c-24.4 0-50.6-0.1-76.9-0.6-29.2-0.6-38.8-9.1-41-36.6-1.8-21.2-1.4-43-1-64.1 0.2-9.3 0.4-18.9 0.4-28.3v-5h-1.6c0-6.3 0-12.5 0.1-18.8 0.1-18.2 0.1-37.1-0.2-55.7-0.4-28-8.9-36.3-37.7-37.1-2.5-0.1-5.1-0.1-8-0.1-5.3 0-10.7 0.1-16 0.2-5.3-0.3-10.6-0.1-15.9-0.1zM985.5 108.8c0-25.7 0.4-51.4-0.1-77.1-1.2-64.2-47.7-113.8-111.4-118.8-52.8-4.2-105.7-4.8-158.7-3.4-39 1-44.4 7.2-44.8 45.4-0.2 24.2 1.5 48.4-4.1 72.3-8.8 37.8-39.3 60.7-78 57.9-36.3-2.7-64-30.5-66.3-68.4-1.5-24.1-0.6-48.4-1.6-72.6-0.8-21.4-10.5-31.5-34.1-32.4-54.4-2.1-108.6-3.4-163.1 0.6-70.8 5.1-118.2 52.2-119.9 122.9-0.7 29.5-0.2 59-0.2 88.5-0.1 30.4-4.6 35.5-34.2 39-31.6 3.7-60.1 14.5-84.4 35.6-44.4 38.6-55 88.5-40.9 142.3 14.8 56.3 55.5 88.2 112.4 99.5 7.4 1.5 14.9 2.7 22.4 3.4 17.8 1.8 24.7 12.2 24.6 29.1-0.2 27.2-0.2 54.5 0.1 81.7 0.8 89.8 46.5 136.8 136.7 139.9 26.4 0.9 53 1.2 79.4 0.1 22.1-0.9 32.6 6.2 35.1 30 6.4 62.5 37.7 109.1 99 128.3C641.3 880 724.2 821.1 735.2 726.2c3.5-29.8 5.4-31.4 34.7-32 37-0.7 74 2.3 110.9-3.7 60.6-9.8 102.5-54.5 104.2-116.1 1.6-55.2 0.2-110.4 0.6-165.6 0.2-22.3-11.9-31.7-32.2-32.4-22.7-0.8-45.4-0.1-68.1-0.8-39.7-1.3-69.6-28-72.7-64.1-3.8-44 17.5-72.9 60.4-81.9 23.2-4.9 46.7-2.2 70.1-2.5 37.9-0.5 42.1-4.3 42.2-41.2 0.4-25.7 0.3-51.4 0.2-77.1 0.1 0 0.1 0 0 0zM279.2 482.4h-1.6c0-26.5 0.3-52.9-0.1-79.4-0.4-25.6-6.8-31.5-32.8-32.2-25.6-0.7-51.4 2.7-76.9-3.1-40.3-9.1-57.7-33.6-54.1-76 2.8-33.1 27.7-54.7 65.4-56.1 22.7-0.8 45.4 0 68-0.9 19.6-0.8 30.8-10.5 30.4-31.5-0.4-20.4-0.1-40.8 0-61.2 0.2-36.3-1-72.7 1.2-108.8 2-33.6 16.3-45.7 49.1-46.8 18.1-0.6 36.3-0.5 54.4-0.3 52.9 0.6 55.5-7.6 67.4 53.8 12.1 62.6 64.3 109.2 126.1 117.8 58.6 8.2 117.1-21.4 147.1-74 12.6-22.1 18.7-46.2 21.5-71.1 1.9-17.1 10-26.4 27.6-26.4 31.8 0 63.5-0.7 95.3 0.6 27.5 1.1 40.1 12.9 42.9 40.2 2 19.5 1.1 39.3 1.3 58.9 0.9 68.5-1.5 60.5-56.7 71.9-69.9 14.5-116 74.2-115.8 145.7 0.1 69.2 47.6 127.3 116.7 142.6 11.8 2.6 23.9 3.7 35.8 5.8 10.6 1.9 19 6.9 19.2 18.8 0.7 37 3.3 74.1-1.6 110.9-2.9 21.7-16.3 33.7-38.3 34.5-43.8 1.5-87.6 2.8-131.4 3.5-15.8 0.2-31.4-3.6-47.4-1.5-20 2.7-29.6 12.9-29.6 33 0.1 23.4 0.7 46.9-0.7 70.3-2.2 38.1-29.1 62.5-67 62.5-37.7 0-64.6-24.6-67.2-62.5-1.2-16.6-0.5-33.3-0.5-49.9 0-50.1-3.3-53.4-53.8-54.5-4.5-0.1-9.1 0-13.6 0-44.6-0.1-89.2 0.3-133.8-0.6-31.2-0.6-43.4-10.3-45.9-41.2-2.6-30.7-0.6-61.8-0.6-92.8z"  horiz-adv-x="1024" />

    
    <glyph glyph-name="qingchu" unicode="&#59381;" d="M449.450667 842.794667l-3.84-0.341334a21.333333 21.333333 0 0 1-17.493334-20.992v-327.082666H108.330667a21.333333 21.333333 0 0 1-21.333334-21.333334v-124.586666a21.333333 21.333333 0 0 1 21.333334-21.333334H915.626667a21.333333 21.333333 0 0 1 21.333333 21.333334v124.586666l-0.341333 3.84a21.333333 21.333333 0 0 1-20.992 17.493334h-333.056V821.461333a21.333333 21.333333 0 0 1-21.333334 21.333334h-111.829333z m90.496-42.666667v-327.125333l0.341333-3.84a21.333333 21.333333 0 0 1 20.992-17.493334l333.056 0.042667v-81.877333H129.621333v81.877333h319.829334l3.84 0.298667a21.333333 21.333333 0 0 1 17.493333 20.992V800.128h69.162667zM874.197333 385.493333h-725.333333a21.333333 21.333333 0 0 1-21.333333-21.333333v-417.621333a21.333333 21.333333 0 0 1 21.333333-21.333334h725.333333a21.333333 21.333333 0 0 1 21.333334 21.333334v417.621333a21.333333 21.333333 0 0 1-21.333334 21.333333z m-21.376-42.624v-374.954666h-682.666666v374.954666h682.666666zM347.946667 165.504a21.333333 21.333333 0 0 0 20.992-17.493333l0.341333-3.84v-175.658667a21.333333 21.333333 0 0 0-42.325333-3.84l-0.341334 3.84v175.658667a21.333333 21.333333 0 0 0 21.333334 21.333333zM675.072 165.504a21.333333 21.333333 0 0 0 20.992-17.493333l0.341333-3.84v-175.658667a21.333333 21.333333 0 0 0-42.325333-3.84l-0.341333 3.84v175.658667a21.333333 21.333333 0 0 0 21.333333 21.333333zM511.530667 165.504a21.333333 21.333333 0 0 0 20.949333-17.493333l0.384-3.84v-175.658667a21.333333 21.333333 0 0 0-42.325333-3.84l-0.341334 3.84v175.658667a21.333333 21.333333 0 0 0 21.333334 21.333333z"  horiz-adv-x="1024" />

    
    <glyph glyph-name="niantie1" unicode="&#59382;" d="M502.044444 831.146667h124.017778c17.066667 0 30.947556 14.506667 30.947556 32.426666a31.744 31.744 0 0 1-31.004445 32.426667h-124.017777c-17.066667 0-30.947556-14.506667-30.947556-32.426667 0-17.92 13.880889-32.426667 31.004444-32.426666z m-186.595555-94.663111c17.066667 0 31.004444 14.506667 31.004444 32.426666V798.72c0 17.635556 13.482667 32.085333 30.378667 32.426667 17.066667 0 30.947556 14.506667 30.947556 32.426666A32.995556 32.995556 0 0 1 376.206222 896C325.404444 894.919111 284.785778 851.797333 284.444444 798.72v-29.809778c0-17.92 13.880889-32.426667 31.004445-32.426666z m437.020444 94.663111h124.017778c17.066667 0 30.947556 14.506667 30.947556 32.426666a31.744 31.744 0 0 1-30.947556 32.426667h-124.017778c-17.066667 0-31.004444-14.506667-31.004444-32.426667 0-17.92 13.880889-32.426667 31.004444-32.426666z m240.526223-497.322667c-17.066667 0-31.004444-14.506667-31.004445-32.426667v-129.706666a32.369778 32.369778 0 0 1 31.004445-32.426667c17.123556 0 31.004444 14.506667 31.004444 32.426667v129.706666a31.744 31.744 0 0 1-31.004444 32.426667z m-62.008889-226.304h-123.960889a32.369778 32.369778 0 0 1-31.004445-32.426667c0-17.92 13.880889-32.426667 31.004445-32.426666h124.017778c8.135111 0 15.928889 3.413333 21.617777 9.557333a32.995556 32.995556 0 0 1-21.674666 55.296zM1016.604444 837.632a30.492444 30.492444 0 0 1-39.025777 16.896 33.678222 33.678222 0 0 1-16.156445-42.837333 30.492444 30.492444 0 0 0 0-12.970667v-104.391111a32.369778 32.369778 0 0 1 31.004445-32.426667c17.123556 0 31.004444 14.506667 31.004444 32.426667V798.72a103.253333 103.253333 0 0 1-6.826667 38.912z m-23.552-241.834667c-17.066667 0-31.004444-14.563556-31.004444-32.426666v-129.706667a32.369778 32.369778 0 0 1 31.004444-32.426667c17.123556 0 31.004444 14.506667 31.004445 32.426667v129.706667a31.744 31.744 0 0 1-31.004445 32.426666zM646.542222-128h-553.528889C41.642667-128 0-84.48 0-30.72V628.053333C0 681.813333 41.642667 725.333333 93.013333 725.333333h553.528889C697.912889 725.333333 739.555556 681.813333 739.555556 628.053333v-658.773333c0-53.76-41.642667-97.28-93.013334-97.28zM93.013333 660.48c-17.123556 0-31.004444-14.506667-31.004444-32.426667v-658.773333c0-17.92 13.880889-32.426667 31.004444-32.426667h553.528889c17.123556 0 31.004444 14.506667 31.004445 32.426667V628.053333a31.744 31.744 0 0 1-31.004445 32.426667h-553.528889zM595.171556 490.040889H201.272889C184.32 490.040889 170.666667 504.490667 170.666667 522.353778 170.666667 540.216889 184.32 554.666667 201.272889 554.666667h393.898667c16.896 0 30.606222-14.449778 30.606222-32.312889-0.341333-17.692444-13.824-31.971556-30.606222-32.312889z m0-195.242667H201.272889C184.32 294.798222 170.666667 309.248 170.666667 327.111111c0 17.863111 13.653333 32.312889 30.606222 32.312889h393.898667c16.896 0 30.606222-14.449778 30.606222-32.312889 0-17.863111-13.653333-32.312889-30.606222-32.312889z m0-195.242666H201.272889C184.32 99.555556 170.666667 114.005333 170.666667 131.868444c0 17.863111 13.653333 32.312889 30.606222 32.312889h393.898667c16.782222-0.341333 30.264889-14.620444 30.606222-32.312889 0-17.863111-13.653333-32.312889-30.606222-32.312888z"  horiz-adv-x="1024" />

    
    <glyph glyph-name="gongzhonghao" unicode="&#59376;" d="M1027.4285037 262.39431111c-1.21362963 145.39282963-121.48432592 259.47401482-265.90625185 282.41161481C730.45333333 706.0973037 572.56011852 824.54755555 383.35525925 824.91164445 182.74228148 824.66891852 1.30465185 678.912-0.27306667 487.76533333c0.48545185-101.70216297 60.31739259-187.38441482 137.86832592-252.07087408l-23.9085037-80.94909628c-4.2477037-14.0781037 0.48545185-29.00574815 11.89357037-38.22933334 11.40811852-9.10222222 27.06394075-10.43721482 39.80705186-3.39816296l100.12444444 55.82696296c18.93262222-4.61179259 38.3506963-9.34494815 58.49694815-12.86447408 19.17534815-3.2768 38.83614815-5.5826963 59.22512593-5.5826963 10.67994075 0 20.99579259 0.72817778 31.4330074 1.45635557 48.05973333-104.73623703 162.01955555-176.34038518 294.30518519-176.58311112 33.98162963 0.12136297 65.41463703 7.5245037 94.42038519 14.80628148l78.88592592-45.02565926c12.74311111-7.28177778 28.5202963-6.06814815 39.92841482 3.03407408 11.40811852 8.98085925 16.26263703 24.15122963 12.25765926 38.10797037l-18.56853333 64.32237038c62.62328889 54.49197037 111.04711111 126.21748148 111.53256295 211.77837036zM383.35525925 222.22317037000005c-14.92764445 0-30.58346667 1.69908148-46.96746666 4.49042963-21.48124445 3.64088889-43.93339259 9.46631111-67.23508148 15.17037037l-26.09303703-3.39816296-35.68071111-19.90352593 5.82542221 19.78216297c4.2477037 14.32082963-0.72817778 29.61256297-12.62174815 38.71478518-77.30820741 58.86103703-129.61564445 133.98471111-129.13019258 210.6861037 0.36408889 140.9024 144.30056297 265.17807408 311.9028148 265.4208 153.0386963-0.36408889 272.09576297-90.05131852 303.7714963-204.98204444-164.68954075-10.31585185-296.12562963-131.43608889-296.61108147-285.80977778 0-13.47128889 1.45635555-26.69985185 3.39816295-39.56432593-3.51952592-0.12136297-7.03905185-0.60681482-10.55857778-0.60681481z m457.41700742-169.17997037l0.48545185-1.69908148-14.56355555 8.37404445-26.57848889 3.64088888c-33.37481482-8.61677037-64.20100741-16.26263703-90.90085926-16.14127407-141.75194075 0.48545185-246.60954075 99.2749037-246.85226667 215.17653333 0.24272592 115.53754075 105.22168889 214.81244445 246.85226667 215.17653334 132.40699259-0.24272592 246.36681482-101.21671111 246.60954073-215.17653334 0.48545185-61.53102222-40.77795555-122.81931852-102.67306666-171.12177778-11.65084445-8.98085925-16.50536297-24.15122963-12.37902222-38.22933333zM238.32651852 621.50731852c-33.01072592 0-59.71057778-26.69985185-59.71057777-59.71057777 0-33.01072592 26.69985185-59.71057778 59.71057777-59.71057778 33.01072592 0 59.71057778 26.69985185 59.71057778 59.71057778 0.12136297 33.01072592-26.69985185 59.71057778-59.71057778 59.71057777zM453.38168889 502.08616297c33.01072592 0 59.83194075 26.69985185 59.83194074 59.71057778 0 33.01072592-26.69985185 59.71057778-59.83194074 59.71057777-33.01072592 0-59.71057778-26.69985185-59.71057778-59.71057777 0-33.01072592 26.82121482-59.71057778 59.71057778-59.71057778zM632.75614815 334.72663703c-3.2768 0-6.5536-0.36408889-9.58767407-0.9709037-21.72397037-4.49042963-38.10797037-23.66577778-38.10797038-46.8461037 0-23.05896297 16.384-42.35567408 38.10797038-46.84610371 3.15543703-0.60681482 6.31087408-0.9709037 9.58767407-0.9709037 26.33576297 0 47.81700741 21.35988148 47.8170074 47.81700741 0 26.45712592-21.48124445 47.81700741-47.8170074 47.8170074zM799.99431111 334.72663703c-9.95176297 0-19.05398518-3.03407408-26.69985186-8.13131851-7.64586667-5.09724445-13.71401482-12.50038518-17.3549037-20.9957926-2.42725925-5.70405925-3.76225185-12.01493333-3.76225185-18.56853333s1.33499259-12.86447408 3.76225185-18.56853334c3.64088889-8.61677037 9.70903703-15.89854815 17.3549037-20.99579258 7.64586667-5.09724445 16.86945185-8.13131852 26.69985186-8.13131852 26.45712592 0 47.81700741 21.35988148 47.81700741 47.8170074 0 26.2144-21.35988148 47.57428148-47.81700741 47.57428148z"  horiz-adv-x="1024" />

    
    <glyph glyph-name="H" unicode="&#59377;" d="M84.80236999 869.45185223l77.67229668-873.81333333 349.0398811-97.09037113 350.01078556 97.09037113 77.67229668 873.81333333H84.80236999z m672.35081558-274.7657489h-412.63407446l12.62174777-139.32468111H745.01688889l-27.18530332-302.92195555-205.83158557-56.79786667-205.83158557 57.2833189-12.62174776 141.75193998h77.67229667l7.28177778-82.52681443 133.49925888-35.92343666 3.88361443 0.97090332 129.13019336 34.95253334 14.56355555 165.05363h-373.79792668L259.56503666 672.3584h504.86992668l-7.28177777-77.67229667z"  horiz-adv-x="1024" />

    
    <glyph glyph-name="xiaochengxushezhi" unicode="&#59378;" d="M512-71.68c251.668 0 455.68 204.012 455.68 455.68S763.668 839.68 512 839.68 56.32 635.668 56.32 384 260.332-71.68 512-71.68z m0 71.68c-212.07 0-384 171.93-384 384s171.93 384 384 384 384-171.93 384-384-171.93-384-384-384zM544.297 490.721a77.599 77.599 0 1 0 77.599-77.578 30.72 30.72 0 0 1 0-61.44c76.78 0 139.028 62.249 139.028 139.029S698.675 629.76 621.896 629.76s-139.039-62.249-139.039-139.028a30.72 30.72 0 0 1 61.44 0z m-61.44-213.217a77.588 77.588 0 0 0-155.177 0 77.588 77.588 0 0 0 77.588 77.599 30.72 30.72 0 0 1 0 61.44c-76.769 0-139.028-62.239-139.028-139.039 0-76.78 62.249-139.028 139.028-139.028 76.79 0 139.029 62.248 139.029 139.028a30.72 30.72 0 0 1-61.44 0zM482.857 493.844V276.07h61.44V493.844z"  horiz-adv-x="1024" />

    
    <glyph glyph-name="tuihuobaozhang" unicode="&#58881;" d="M936.857805 372.568678c0 0-42.065715 68.89513-88.786739 68.89513-46.68416 0-95.732122-71.223091-95.732122-71.223091s-44.28544 72.503296-93.440922 71.152538c-35.565466-0.977306-62.89705-30.882406-79.124275-64.06615L579.773747 105.199203c-3.253248-37.391565-5.677568-50.904371-12.002816-69.63497-6.651802-19.698688-19.544883-35.227341-31.650099-45.909606-14.30231-12.621414-29.59831-22.066586-45.854208-27.424563-16.28969-5.362074-30.098739-6.496973-51.536794-6.496973-19.498906 0-36.95104 2.963456-52.395418 8.850534-15.410586 5.887078-28.420403 14.313984-39.034573 25.246003-10.613146 10.930995-18.757939 24.08151-24.435507 39.525171-5.676544 15.443763-8.532685 40.195482-8.532685 59.270963l0 26.232454 74.435273 0c0-24.644301-0.17705-64.452915 8.81408-77.006848 9.02697-12.515021 22.756147-18.092032 41.148826-18.791014 16.728678-0.636518 30.032179 8.061645 30.032179 8.061645s11.922022 10.5472 14.992077 19.756954c2.674995 8.025805 3.565363 22.180147 3.565363 22.180147s2.080461 21.789286 2.080461 34.234675L489.399906 381.700631c-16.678502 18.827776-43.801395 61.938688-82.756096 60.927693-54.699008-1.419366-100.422144-70.059622-100.422144-70.059622s-56.065126 70.059622-93.440922 70.059622c-37.376717 0-91.077939-70.059622-91.077939-70.059622S105.343488 739.262259 476.742042 776.636416l53.70327 74.714624 51.373056-74.714624C964.889395 753.259008 936.857805 372.568678 936.857805 372.568678z"  horiz-adv-x="1024" />

    
    <glyph glyph-name="huodongyouxian" unicode="&#58882;" d="M911.945421 589.396992l-62.497894-36.07767c-17.62304-10.177843-40.14592-4.144435-50.315981 13.476966-10.177229 17.622323-4.143514 40.145306 13.469286 50.324173l62.422221 36.033638c-30.075187 43.229594-67.660698 80.808448-110.886912 110.890598l-36.04951-62.414541c-10.171085-17.621299-32.692941-23.654707-50.315981-13.486182-17.625088 10.177843-23.656755 32.700723-13.479526 50.322125L700.379443 800.962458c-46.631936 22.00105-97.723597 36.02135-151.551693 40.466637l0-72.03564c0-20.337152-16.480973-36.835942-36.837478-36.835942-20.336947 0-36.836454 16.49879-36.836454 36.835942L475.153818 841.43015c-53.817856-4.44631-104.912589-18.465587-151.533261-40.461517l36.089344-62.502502c10.170061-17.622323 4.134298-40.144282-13.488742-50.322125-17.611776-10.168627-40.14592-4.135219-50.325197 13.486182l-36.032102 62.414541c-43.23543-30.08215-80.811725-67.666125-110.89408-110.890598l62.410957-36.033638c17.624064-10.178867 23.656755-32.702771 13.488742-50.324173-10.170061-17.621299-32.703181-23.655731-50.327245-13.476966l-62.497894 36.071526c-26.967245-57.152717-42.104627-120.981402-42.104627-188.367155 0-244.134298 197.907354-442.041651 442.05056-442.041651 244.153446 0 442.066944 197.905408 442.066944 442.041651C954.05824 468.413542 938.919834 532.244275 911.945421 589.396992zM767.225549 253.680947c-81.385882-140.943053-261.623091-189.244109-402.584166-107.86775-140.962099 81.382502-189.253939 261.618483-107.864986 402.564608 81.37769 140.946125 261.624115 189.245133 402.584166 107.869798C800.302285 574.86295 848.603238 394.627072 767.225549 253.680947zM667.258778 590.457139 562.319565 413.687091c-10.170061-17.611059-32.694989-23.654707-50.325197-13.487206-17.6128 10.178867-23.655731 32.710963-13.478502 50.324173L603.857306 627.959296c-28.383539 11.459994-59.370598 17.823949-91.862938 17.823949-135.626342 0-245.582029-109.951181-245.582029-245.583258 0-135.619789 109.955686-245.571994 245.582029-245.571994 135.644774 0 245.593293 109.950157 245.593293 245.571994C757.587661 476.928512 722.381414 545.418342 667.258778 590.457139z"  horiz-adv-x="1024" />

    
    <glyph glyph-name="tianmaopaidui" unicode="&#58883;" d="M861.747098-41.008742 194.899721-41.008742c-51.169485 0-86.937498 46.057984-80.172134 101.243904l76.931174 518.728192c4.354355 35.506688 39.835853 63.616922 79.307469 63.616922l43.902658 0c5.037978 132.558029 97.802445 204.082074 211.835085 204.082074 114.032742 0 206.831923-71.523942 211.869901-204.082074l47.06685 0c39.510426 0 74.954138-28.110234 79.345254-63.616922l76.897485-518.728192C948.684698 5.049242 912.880742-41.008742 861.747098-41.008742zM284.065075 494.324736c0-28.902298 23.463322-52.345139 52.35753-52.345139 28.931072 0 52.35753 23.442944 52.35753 52.345139 0 28.911514-23.425434 52.353331-52.35753 52.353331C307.528397 546.678067 284.065075 523.236147 284.065075 494.324736zM526.737715 807.62112c-95.678976 0-173.582336-54.054093-178.586522-165.040845l357.210921 0C700.359987 753.567027 622.456627 807.62112 526.737715 807.62112zM722.850099 546.678067c-28.894208 0-52.35753-23.44192-52.35753-52.353331 0-28.902298 23.463322-52.345139 52.35753-52.345139 28.931072 0 52.356506 23.442944 52.356506 52.345139C775.206707 523.236147 751.780147 546.678067 722.850099 546.678067z"  horiz-adv-x="1024" />

    
    <glyph glyph-name="shengriliwu" unicode="&#58884;" d="M848.794624-43.156685 571.780416-43.156685 571.780416 242.82877l341.897539 0 0-221.100654C913.677926-13.960704 884.482867-43.156685 848.794624-43.156685zM571.780403 577.256448c-11.861606 3.210138-31.443354 8.36864-39.829709 16.176435-0.596582 0.561766-1.016218 1.246413-1.613824 1.841971-0.560845-0.596582-1.016218-1.280205-1.613824-1.841971-8.386355-7.807795-15.96631-12.965274-27.827917-16.176435l0-263.544325L141.030675 313.712123 141.030675 540.797116c0 35.687834 29.195059 64.882688 64.883302 64.882688l150.649125 0c-16.984474 9.525965-32.846438 20.56233-46.111027 32.932045-60.250624 56.144691-71.129907 137.062605-24.283034 180.767027 19.615539 18.264986 46.252237 27.124736 75.026739 27.124736 39.933133 0 83.972915-17.070797 118.995968-49.706086 20.353331-18.983322 37.722624-43.405619 50.145075-69.056819 12.457267 25.6512 29.791744 50.074419 50.180915 69.056819 35.022029 32.63529 79.062835 49.706086 118.994944 49.706086 28.74071 0 55.410176-8.860774 75.025715-27.124736 46.882611-43.704422 35.96759-124.622336-24.283034-180.767027-13.264589-12.368691-29.127578-23.40608-46.111027-32.932045l144.649234 0c35.688243 0 64.882278-29.195981 64.882278-64.882688l0-227.084948L571.780416 313.712167 571.780416 577.256492zM435.064218 748.374733c-21.476966 19.965747-49.094144 31.913882-73.868288 31.913882-7.404954 0-21.125018-1.211597-29.863322-9.386803-2.000691-1.824563-8.070144-7.439462-8.070144-21.369754 0-15.650406 8.492749-40.24873 32.319386-62.477926 29.124506-27.12576 77.202432-47.601152 111.76704-47.601152 12.176794 0 16.492237 2.666701 16.527053 2.702541C489.524736 653.45495 475.664486 710.546227 435.064218 748.374733zM577.78135 641.209037c0 0 0.034816 0.034816 0.069632 0.034816 0.807424 0 5.50871-1.790771 15.509914-1.790771 34.564608 0 82.64151 20.47529 111.76704 47.601152 23.826637 22.229299 32.283546 46.810112 32.283546 62.442189 0 13.930291-6.033613 19.562496-8.035328 21.404467-8.77312 8.17623-22.457344 9.386803-29.864346 9.386803-24.808038 0-52.390298-11.948134-73.867264-31.913882C585.325466 710.791782 571.358822 654.26135 577.78135 641.209037zM500.89513-43.156685 205.914017-43.156685c-35.688243 0-64.883302 29.195981-64.883302 64.883712L141.030714 242.82877l359.864462 0L500.895177-43.15666z"  horiz-adv-x="1024" />

    
    <glyph glyph-name="jisutuikuan" unicode="&#58885;" d="M741.06368 162.689536c8.075264 29.262438 20.615373 40.632422 14.64105 162.810061C966.089728 534.210048 967.93897 823.62153 967.855002 841.306317c0.279347 0.279347 0.418509 0.419533 0.418509 0.419533s-0.17705 0.00512-0.428749 0.00512c0 0.251699 0 0.428749 0 0.428749s-0.139162-0.14633-0.418509-0.425677c-17.695744 0.083866-307.10784-1.760051-515.833958-212.142592-122.181632 5.984256-133.55305-6.563533-162.815693-14.644531C235.35063 600.201114 103.552614 459.024691 90.630758 409.923379c-12.921856-49.105408 39.634227-56.859034 58.579558-58.581197 18.953421-1.724314 121.471386 9.475789 130.09111-4.309094 0 0 16.367411-11.200102 17.226035-41.346662 0.850432-29.796659 15.173222-71.354163 37.123994-97.267302-0.028672-0.027648-0.05632-0.054272-0.083866-0.074752 0.158618-0.13097 0.316211-0.261939 0.474829-0.390861 0.129946-0.149402 0.261939-0.319283 0.393011-0.468685 0.019456 0.019456 0.04608 0.049152 0.075776 0.075674 25.918362-21.961216 67.477504-36.272128 97.269248-37.122458 30.149837-0.859546 41.354547-17.234534 41.354547-17.234534 13.779354-8.608051 2.583962-111.122842 4.302131-130.075546 1.727386-18.95168 9.477222-71.498445 58.579558-58.576077C585.12896-22.526771 726.311117 109.265818 741.06368 162.689536zM595.893555 469.793997c-39.961702 39.965184-39.961702 104.75991 0 144.720077 39.970918 39.96928 104.768307 39.96928 144.730112 0 39.970918-39.960064 39.970918-104.75479 0-144.720077C700.661862 429.828813 635.864474 429.828813 595.893555 469.793997zM358.53312 126.483968c-31.923302 4.573184-54.890394 18.410291-71.41847 35.402342-16.984474 16.526438-30.830387 39.495475-35.405824 71.420621-4.649062 28.082586-20.856832 41.167565-38.76649 38.763827-17.906586-2.40681-77.046886-66.714419-80.857805-89.475891-3.80887-22.752154 29.271859-12.081152 46.424166-27.654861 17.151283-15.590093-2.139853-61.93664-14.733107-86.845952-6.441984-12.735078-10.289766-26.42176-4.22953-33.76087 7.346586-6.070272 21.03593-2.222592 33.769472 4.220109 24.912384 12.585677 71.258829 31.872922 86.842368 14.731469 15.583539-17.160806 4.911002-50.229965 27.674419-46.419251 22.754099 3.807744 87.065395 62.946611 89.466163 80.85248C399.70857 105.625907 386.627072 121.833062 358.53312 126.483968z"  horiz-adv-x="1024" />

    
    <glyph glyph-name="kefuyouxian" unicode="&#58886;" d="M526.671258-10.945024 366.50496 258.472038c0 0-173.408358-67.277312-233.568973-107.761357-60.166758-40.484045-86.761472-163.346227-86.761472-163.346227l962.660513 0c0 0-17.634304 115.704218-88.419328 163.346227-60.171878 40.484045-233.583309 107.761357-233.583309 107.761357L526.671258-10.945024zM526.671258 204.587827l-53.393203-53.876019 26.699162-53.885235-80.085197-107.77047 213.554334 0-80.082125 107.77047 26.69097 53.885235L526.671258 204.587827zM532.399923 822.285107c235.125453 0 235.535872-179.932058 235.535872-281.104282 0-101.173248-94.210458-289.163776-235.535872-289.38281C391.080653 251.567821 296.863027 440.007578 296.863027 541.180826 296.863027 642.35305 297.277542 822.285107 532.399923 822.285107z"  horiz-adv-x="1024" />

    
    <glyph glyph-name="chaozhijifen" unicode="&#58887;" d="M772.022989 434.500198c4.561101 4.502528 7.773389 10.336461 8.83968 16.952115 2.105037 13.195571-4.464845 26.094285-16.504525 32.172749l-199.027917 100.425216 34.592256 218.518835c2.065101 13.194547-3.541811 25.056666-15.591731 31.097242-12.04992 6.028288-24.344474 1.43872-33.888154-8.007373L397.330227 674.298675l-205.538406 97.331814c-12.059136 6.069248-28.729446 5.785805-38.301901-3.669606l0.577126-0.587366c-9.563238-9.455309-10.718515-25.087386-4.580557-37.008896l98.82368-205.795021L95.121203 375.489126c-9.542758-9.445069-14.202061-21.601997-8.093696-33.514291 6.107341-11.913318 16.952832-16.308429 30.295245-14.272102l221.669478 33.701581 102.20073-197.553357c6.156493-11.90103 19.359744-18.527949 32.713318-16.433254 6.675251 1.045811 12.636262 4.156621 17.189171 8.670515 4.550861 4.494336 7.713997 10.376294 8.769024 16.973619l35.070157 217.853747 219.917517 34.972467C761.509171 426.943078 767.481446 429.998592 772.022989 434.500198zM629.244518 367.196262l-65.524941-7.851827-8.938906-55.465267 299.443917-335.941222c0 0 45.485773 12.187546 68.784333 35.268198 28.375347 28.131738 45.592166 78.337126 45.592166 78.337126L629.244518 367.196262z"  horiz-adv-x="1024" />

    
    <glyph glyph-name="tianmaohaoquan" unicode="&#58890;" d="M952.019763 339.252838l-450.866688 450.848256c-10.788147 10.787738-32.021606 20.748595-47.229542 22.129971L210.063667 834.445107c-15.194624 1.383526-36.452659-6.308659-47.228518-17.108685l-55.653786-55.651533c-10.764595-10.787738-18.504192-32.043827-17.132851-47.201997l21.718528-244.478054c1.335501-15.19401 11.272192-36.427674 22.049075-47.226573l450.878976-450.850304c10.775859-10.773402 28.419379-10.773402 39.217766 0L952.019763 300.03671C962.79767 310.824448 962.79767 328.474419 952.019763 339.252838zM278.597325 644.284109c-23.502234-23.53705-61.550285-23.50121-85.028966 0-23.515546 23.478784-23.550362 61.547725-0.03584 85.049037 23.478682 23.478784 61.562573 23.454208 85.064806-0.03584C302.086246 705.808282 302.063718 667.72695 278.597325 644.284109z"  horiz-adv-x="1024" />

    
    <glyph glyph-name="leqi" unicode="&#58891;" d="M644.843243 441.328185q11.861004 0 28.466409 7.907336t34.792278 15.419305 35.583012 10.279537 31.629344-8.698069 22.931274-40.72278 8.698069-85.399228l0-357.411583q0-22.931274-10.279537-43.094981t-28.466409-35.187645-43.490347-23.722008-55.351351-8.698069l-327.363707 0q-22.140541 0-43.094981 8.698069t-37.164479 23.722008-26.094208 35.187645-9.88417 43.094981l0 357.411583q1.581467 55.351351 11.07027 84.213127t24.512741 39.932046 32.815444 9.093436 35.187645-9.093436 32.02471-15.023938 23.326641-7.907336l21.349807 0q7.907336 0 14.628571 3.953668t11.465637 10.279537 7.116602 13.442471 2.372201 13.442471l0 219.823938-7.116602 0q-10.279537 0-17.396139 6.325869t-7.116602 15.023938 7.116602 15.023938 17.396139 6.325869l7.116602 0 0 13.442471-7.116602 0q-10.279537 0-17.396139 6.325869t-7.116602 15.023938 7.116602 15.023938 17.396139 6.325869l7.116602 0 0 6.325869q0 1.581467 0.395367 3.558301t0.395367 3.558301l-7.907336 0q-10.279537 0-17.396139 6.325869t-7.116602 15.023938 7.116602 15.023938 17.396139 6.325869l14.233205 0q7.907336 20.559073 30.443243 29.65251t69.979923 9.093436q36.373745 0 55.351351-5.139768t27.280309-16.210039 9.488803-27.675676 1.1861-39.53668l0-55.351351q0-23.722008-8.302703-33.606178t-18.582239-16.210039-18.186873-14.233205-6.325869-27.675676l0-177.915058q0-14.233205 11.465637-27.675676t24.908108-13.442471l17.396139 0zM613.2139 11.959846q0 11.861004-9.88417 20.559073t-23.326641 8.698069l-126.517375 0q-14.233205 0-24.117375-8.698069t-9.88417-20.559073l0-1.581467q0-11.861004 9.88417-20.559073t24.117375-8.698069l126.517375 0q13.442471 0 23.326641 8.698069t9.88417 20.559073l0 1.581467zM519.116602 83.916602q27.675676 0 52.188417 10.674903t42.699614 28.861776 28.861776 43.094981 10.674903 52.583784-10.674903 52.188417-28.861776 42.699614-42.699614 28.861776-52.188417 10.674903-51.79305-10.674903-42.304247-28.861776-28.861776-42.699614-10.674903-52.188417 10.674903-52.583784 28.861776-43.094981 42.304247-28.861776 51.79305-10.674903zM519.116602 312.43861q18.977606 0 35.978378-7.511969t29.65251-20.163707 20.163707-29.65251 7.511969-35.978378-7.511969-35.978378-20.163707-29.65251-29.65251-20.163707-35.978378-7.511969-35.978378 7.511969-29.257143 20.163707-19.76834 29.65251-7.511969 35.978378 7.511969 35.978378 19.76834 29.65251 29.257143 20.163707 35.978378 7.511969z"  horiz-adv-x="1024" />

    
    <glyph glyph-name="bingxiang" unicode="&#58892;" d="M327.68 782.336q23.552 0 40.96-16.896t17.408-41.472l0-794.624q0-23.552-17.408-40.448t-40.96-16.896l-135.168 0q-24.576 0-41.472 16.896t-16.896 40.448l0 794.624q0 24.576 16.896 41.472t41.472 16.896l135.168 0zM347.136 347.136q0 8.192-6.144 14.336t-14.336 6.144-13.824-6.144-5.632-14.336l0-104.448q0-8.192 5.632-14.336t13.824-6.144 14.336 6.144 6.144 14.336l0 104.448zM820.224 782.336q24.576 0 41.472-18.432t16.896-51.2l0-794.624q0-15.36-16.896-30.72t-41.472-15.36l-322.56 0q-24.576 0-41.472 16.896t-16.896 40.448l0 794.624q0 24.576 16.896 41.472t41.472 16.896l322.56 0zM519.168 347.136q0 8.192-5.632 14.336t-13.824 6.144-14.336-6.144-6.144-14.336l0-104.448q0-8.192 6.144-14.336t14.336-6.144 13.824 6.144 5.632 14.336l0 104.448zM772.096 618.496q0 17.408-9.216 28.672t-23.552 11.264l-153.6 0q-14.336 0-23.552-11.264t-9.216-28.672l0-105.472q0-17.408 9.216-29.184t23.552-11.776l153.6 0q14.336 0 23.552 11.776t9.216 29.184l0 105.472z"  horiz-adv-x="1024" />

    
    <glyph glyph-name="kafei" unicode="&#58903;" d="M193.536-19.456l473.088 0 0-52.224q0-20.48-15.36-38.4t-45.056-17.92l-351.232 0q-26.624 0-44.032 16.384t-17.408 39.936l0 52.224zM829.44 407.552q34.816 0 67.584-4.608t55.296-19.968 32.256-44.032 0.512-77.824q-10.24-51.2-30.208-77.824t-46.08-38.4-56.32-11.776-61.952 2.048q-11.264-18.432-25.6-33.28t-30.72-28.672-33.28-28.672-34.304-33.28l-473.088 0q-22.528 31.744-50.176 53.248t-51.2 49.664-39.936 72.192-16.384 119.808l0 107.52q0 20.48 7.168 30.72t16.384 15.36q11.264 5.12 24.576 7.168l697.344 0q12.288-2.048 23.552-7.168 9.216-5.12 16.896-15.36t7.68-30.72l0-6.144zM251.904 546.816q-2.048-15.36-13.312-23.04t-24.064-7.68-23.552 7.68-10.752 23.04q0 35.84 3.584 58.88t6.656 43.52q5.12 29.696 17.92 50.176t26.624 37.376 25.088 32.768 14.336 37.376q4.096 30.72 5.632 48.64t5.12 26.624 10.752 10.752 23.552 2.048 23.552-11.776 8.192-29.696-2.048-37.888-6.144-35.328q-2.048-14.336-9.728-29.184t-17.92-30.72-20.48-31.232-18.432-29.696q-9.216-15.36-14.336-38.4t-10.24-74.24zM445.44 546.816q-2.048-15.36-13.312-23.04t-24.064-7.68-23.552 7.68-10.752 23.04q0 35.84 3.584 58.88t7.68 43.52q5.12 29.696 17.92 50.176t26.112 37.376 24.576 32.768 14.336 37.376q4.096 30.72 6.144 48.64t5.632 26.624 10.752 10.752 23.552 2.048 23.04-11.776 7.68-29.696-1.536-37.888-5.632-35.328q-3.072-14.336-10.752-29.184t-17.408-30.72-20.48-31.232-18.944-29.696q-9.216-15.36-14.336-38.4t-10.24-74.24zM640 546.816q-2.048-15.36-13.312-23.04t-24.064-7.68-23.552 7.68-10.752 23.04q0 35.84 3.072 58.88t7.168 43.52q5.12 29.696 17.92 50.176t26.624 37.376 25.088 32.768 14.336 37.376q4.096 30.72 5.632 48.64t5.12 26.624 10.752 10.752 23.552 2.048 23.552-11.776 8.192-29.696-2.048-37.888-6.144-35.328q-3.072-14.336-10.752-29.184t-17.408-30.72-19.968-31.232-18.432-29.696q-5.12-8.192-8.704-16.896t-6.144-21.504-4.608-30.72-5.12-43.52z"  horiz-adv-x="1024" />

    
    <glyph glyph-name="yaopin" unicode="&#59238;" d="M304.128 524.288q-14.336 0-21.504 5.12t-10.24 12.288q-4.096 8.192-4.096 18.432l0 67.584q0 19.456 7.68 29.184t16.896 14.848q11.264 5.12 24.576 5.12l396.288 0q13.312 0 24.576-5.12 9.216-5.12 16.896-14.848t7.68-29.184l0-67.584q0-10.24-4.096-18.432-3.072-7.168-9.728-12.288t-20.992-5.12l-423.936 0zM837.632-47.104q0-22.528-8.192-40.96-7.168-15.36-22.016-27.648t-42.496-12.288l-497.664 0q-28.672 0-43.008 12.288t-21.504 27.648q-8.192 18.432-9.216 40.96l0 382.976q0 33.792 12.288 48.128t22.528 24.576l72.704 67.584 443.392 0 58.368-67.584q10.24-10.24 22.528-24.576t12.288-48.128l0-382.976zM677.888 217.088l-107.52 0 0 108.544-109.568 0 0-108.544-107.52 0 0-109.568 107.52 0 0-107.52 109.568 0 0 107.52 107.52 0 0 109.568z"  horiz-adv-x="1024" />

    
    <glyph glyph-name="hanbao" unicode="&#59269;" d="M128 446.464l769.024 0 0-130.048-23.552 0q-20.48 0-26.624 10.752t-10.24 24.064-12.8 24.576-33.28 13.312q-24.576 1.024-44.544-8.704t-38.4-22.016-36.352-23.04-38.4-10.752-30.72 9.216-18.944 19.968-19.968 19.968-32.768 9.216-43.008-7.168-41.984-15.872-40.96-15.872-39.936-7.168q-20.48 0-34.816 5.12t-29.184 11.776-31.744 12.8-42.496 8.192q-28.672 2.048-54.272-7.68t-44.032-22.016l0 101.376zM128 125.952l769.024 0 0-128-769.024 0 0 128zM783.36 316.416q17.408 1.024 26.624-7.168t17.92-19.456 18.944-20.48 28.672-9.216l21.504 0 0-69.632-769.024 0 0 79.872q13.312 12.288 37.376 26.112t54.784 13.824q22.528 0 35.84-7.168t25.6-15.872 28.16-15.872 44.544-7.168 51.712 6.656 43.008 15.36 36.864 15.36 32.256 6.656q24.576 0 33.792-8.192t16.896-17.408 18.944-17.408 38.912-8.192 49.152 8.704 39.424 19.456 34.304 19.968 33.792 11.264zM897.024 510.976l-769.024 0 0 64.512q8.192 43.008 41.984 78.848t86.016 61.952 118.272 40.448 138.752 14.336q73.728 0 139.776-14.336t117.248-40.448 84.992-61.952 41.984-78.848l0-64.512zM347.136 640q13.312 0 22.528 9.216t9.216 22.528-9.216 22.528-22.528 9.216-22.528-9.216-9.216-22.528 9.216-22.528 22.528-9.216zM538.624 703.488q14.336 0 23.04 9.216t8.704 22.528-8.704 22.528-23.04 9.216q-13.312 0-22.016-9.216t-8.704-22.528 8.704-22.528 22.016-9.216zM667.648 640q13.312 0 22.528 9.216t9.216 22.528-9.216 22.528-22.528 9.216-22.528-9.216-9.216-22.528 9.216-22.528 22.528-9.216z"  horiz-adv-x="1024" />

    
    <glyph glyph-name="kouhong" unicode="&#59270;" d="M704.24286 574.504494l0-608.428201q0-17.383663-6.646695-33.744757t-19.940084-30.165768-32.210905-21.985221-44.481726-8.180547l-116.572798 0q-52.150989 0-76.181346 29.654484t-24.030357 69.534651l0 603.315358 320.063911 0zM639.821051 640.97144l-192.24286 0 0 108.392251q0 17.383663 2.045137 27.609347t7.157979 17.383663 13.293389 13.804673 19.4288 16.872379q32.722189 29.654484 52.662273 44.481726t36.301178 19.940084q23.519073 8.180547 36.301178 6.13541t18.406231-11.248252 6.13541-23.519073 0.511284-29.654484l0-190.197723z"  horiz-adv-x="1024" />

    
    <glyph glyph-name="bangqiu" unicode="&#59271;" d="M150.959487 505.099369q-11.250554-13.29611-20.455553-31.706107-8.182221-15.341665-14.318887-36.819996t-6.136666-49.093327q0-32.728885 5.625277-57.275549t12.784721-40.911106q8.182221-18.409998 19.432775-32.728885 17.38722 11.250554 31.706107 29.660552 11.250554 15.341665 21.478331 39.37694t10.227777 59.832493q0 26.592219-9.716388 49.093327t-20.966942 37.842773q-13.29611 18.409998-29.660552 32.728885zM182.665595 541.919365q19.432775-20.455553 34.77444-46.024995 13.29611-21.478331 24.035275-49.604716t10.739165-59.832493q0-42.956662-12.273332-73.128602t-26.592219-50.627494q-17.38722-23.523886-37.842773-37.842773 22.501108-17.38722 48.07055-29.660552 21.478331-11.250554 48.581939-20.455553t55.741382-9.204999q30.68333 0 57.275549 7.670832t47.047772 17.898609q23.523886 11.250554 41.933884 26.592219-20.455553 15.341665-37.842773 39.888329-14.318887 20.455553-26.592219 52.16166t-12.273332 77.731102q-1.022778 32.728885 11.250554 59.832493t26.592219 47.559161q17.38722 23.523886 38.865551 41.933884-18.409998 16.364442-41.933884 28.637774-20.455553 11.250554-47.047772 19.944164t-57.275549 8.69361q-29.660552 0-55.229993-8.182221t-46.024995-18.409998q-23.523886-11.250554-43.979439-25.569441zM499.726668 504.076591q10.227777-12.273332 19.432775-30.68333 8.182221-15.341665 14.318887-37.331384t6.136666-49.604716q0-32.728885-6.136666-57.275549t-13.29611-40.911106q-8.182221-19.432775-18.409998-32.728885-18.409998 11.250554-31.706107 29.660552-11.250554 15.341665-21.478331 39.37694t-9.204999 59.832493q0 26.592219 9.204999 49.093327t20.455553 37.842773q13.29611 18.409998 30.68333 32.728885zM694.054423 336.341056q-8.182221 58.298326-15.853054 100.743599t-8.69361 78.242491q-1.022778 17.38722-2.045555 59.832493t-2.556944 90.004434-2.556944 91.027211-1.022778 62.900826q1.022778 40.911106 24.035275 59.832493t61.878048 16.875831q35.797218-1.022778 59.832493-17.38722t24.035275-53.184438l0-73.639991q0-41.933884-0.511389-84.379157t-1.022778-80.799435-1.534166-61.878048-3.579722-43.979439-6.136666-42.445273-8.182221-46.536383-8.69361-55.229993l-107.391654 0zM701.213866 287.247728l20.455553-251.603303q-12.273332-3.068333-23.523886-7.159444-9.204999-4.091111-18.921387-9.716388t-14.830276-14.830276-2.045555-20.966942 13.807498-22.501108 29.149163-18.409998 45.002217-7.670832 46.536383 7.670832 31.194719 18.921387 13.807498 24.035275-4.602499 21.98972q-8.182221 9.204999-17.898609 15.341665t-18.921387 9.204999q-11.250554 4.091111-21.478331 5.113888l18.409998 250.580526-96.1411 0z"  horiz-adv-x="1024" />

    
    <glyph glyph-name="Txu" unicode="&#59272;" d="M365.568 891.904q12.288 2.048 18.944-10.24t14.848-26.624q3.072-7.168 17.92-27.136t31.744-42.496 31.744-41.984 17.92-25.6q8.192-13.312 9.216-20.992t-12.288-6.656q-6.144 1.024-15.872-1.536t-19.456-6.656-18.432-9.728-12.8-9.728q-5.12-6.144-9.728-5.632t-8.704 5.632-7.68 12.8-4.608 15.872q-2.048 10.24-7.168 29.696t-11.264 41.472-11.264 43.52-8.192 35.84q-5.12 25.6-3.584 36.864t8.704 13.312zM662.528 891.904q7.168-2.048 8.704-13.312t-3.584-36.864q-3.072-14.336-8.192-35.84t-11.264-43.52-11.264-41.472-7.168-29.696q-2.048-8.192-5.12-15.872t-7.168-12.8-9.216-5.632-10.24 5.632q-3.072 4.096-11.776 9.728t-18.944 9.728-19.456 6.656-15.36 1.536q-13.312-1.024-12.288 6.656t8.192 20.992q4.096 6.144 18.432 25.6t31.232 41.984 31.744 42.496 18.944 27.136q8.192 14.336 14.848 26.624t18.944 10.24zM489.472 483.328l47.104 0 1.024 144.384 9.216 0q5.12 0 10.24 0.512t13.312 0.512q7.168 0 15.36-5.12l16.384-8.192q8.192-5.12 15.872-8.704t13.824-2.56q6.144 0 13.312 11.264t14.848 27.648 14.336 34.304 12.8 31.232q5.12 13.312 10.24 31.744t8.192 35.84q4.096 19.456 6.144 40.96l36.864-6.144q15.36-3.072 31.744-6.144t27.648-5.12q10.24-3.072 18.432-5.12t15.36-6.656 14.848-11.776 17.92-19.456 25.6-36.352 31.232-50.688 29.184-50.176 18.432-34.816q7.168-14.336 2.56-18.432t-9.728-8.192q-6.144-4.096-20.48-13.824t-31.744-20.992-34.816-20.992-28.672-13.824-14.848-2.56-6.656 6.656q-2.048 3.072-8.192 11.776t-13.312 18.432-13.312 18.432-8.192 10.752q-4.096 5.12-10.24 0.512t-6.144-20.992q0-8.192-0.512-28.16t-0.512-49.664l0-64.512 0-74.752q0-105.472-2.56-168.96t-4.608-99.328q-3.072-40.96-6.144-59.392l-495.616 0q-3.072 29.696-6.144 65.536-2.048 30.72-4.608 72.704t-1.536 91.136l0 80.896q0 41.984-0.512 79.872t-1.024 67.072-0.512 43.52l0 46.08q0 17.408-9.216 19.456-5.12 1.024-9.728-3.072t-9.728-11.264-9.728-15.36-8.704-14.336q-8.192-11.264-12.8-16.384t-7.68-6.144-5.12 0l-8.192 3.072q-13.312 4.096-31.232 13.824t-34.816 20.48-29.696 19.968-16.896 12.288q-8.192 5.12-11.776 8.192t1.536 19.456q3.072 8.192 13.824 28.672t25.6 44.544 30.208 48.128 27.648 41.472q17.408 25.6 34.304 36.864t40.448 16.384q11.264 2.048 28.16 4.608t31.232 5.632q17.408 4.096 35.84 7.168 4.096-21.504 8.192-40.96 4.096-17.408 7.68-35.328t7.68-29.184q3.072-11.264 10.24-28.16t14.848-33.28 15.36-29.184 12.8-15.872q10.24-5.12 23.552 5.12t30.72 15.36q8.192 2.048 16.384 2.56t14.336 0.512q7.168-1.024 13.312-2.048l0-143.36z"  horiz-adv-x="1024" />

    
    <glyph glyph-name="nvbao" unicode="&#59273;" d="M503.88107 511.365709q29.43112 1.014866 48.206145 8.11893t32.983152 12.178394q13.193261 5.074331 30.953419 22.327056t28.923687 39.579782q5.074331 11.163528 12.685828 14.71556t15.730426 2.537166 16.745292-5.074331 15.730426-7.104063 21.819623-11.163528 31.968285-17.252725 35.520317-18.267592 31.460852-15.222993q23.341923-10.148662 33.490585-22.83449t16.237859-21.819623q3.044599-5.074331 12.685828-21.819623t21.31219-39.579782 23.341923-49.728444 17.760159-52.26561q6.089197-26.386521 10.656095-51.250743t1.014866-48.713578-18.267592-46.176412-46.176412-42.624381q-32.475719-20.297324-79.666997-37.042616t-101.48662-29.43112-109.60555-19.789891-104.023786-7.104063-103.516353 7.104063-107.068385 18.775025-97.427156 27.401388-73.5778 31.968285-45.161546 32.475719-24.356789 33.998018-8.626363 38.564916 1.014866 47.191278q2.029732 25.371655 12.685828 56.832507t24.356789 60.891972 26.386521 52.773043 19.789891 33.490585q6.089197 9.133796 16.745292 23.849356t30.953419 22.83449q10.148662 4.059465 28.923687 13.700694t40.087215 20.297324 41.102081 21.31219 32.983152 16.745292q10.148662 5.074331 17.760159 4.566898t12.685828-3.552032 8.11893-7.104063 5.074331-7.104063q3.044599-5.074331 10.148662-17.760159t35.520317-35.012884q14.208127-11.163528 30.445986-16.745292t30.445986-8.626363q17.252725-4.059465 34.505451-4.059465zM504.895937 896l8.11893 0q6.089197 0 15.730426-3.044599t23.849356-10.656095 32.475719-23.849356q19.282458-17.252725 36.535183-39.072349t30.445986-41.609514 20.804757-33.998018 8.626363-17.252725l3.044599-10.148662q3.044599-8.11893 3.044599-16.237859t-4.059465-16.237859-15.222993-12.178394q-12.178394-4.059465-21.31219-2.029732t-14.71556 7.104063-8.11893 11.670961-1.522299 11.670961q2.029732 14.208127 0.507433 24.864222t-11.670961 30.953419q-11.163528 24.356789-27.401388 46.683845t-27.401388 34.505451q-10.148662 11.163528-24.864222 17.252725t-27.908821 6.089197q-18.267592-1.014866-32.475719-9.641229t-24.356789-17.760159q-5.074331-5.074331-11.670961-14.71556t-13.700694-20.804757-13.700694-21.819623-9.641229-16.745292q-7.104063-13.193261-10.656095-22.327056t-1.522299-31.460852-9.133796-29.938553-25.371655-5.581764q-14.208127 1.014866-25.371655 13.193261t-3.044599 34.505451q4.059465 11.163528 13.700694 27.401388t21.819623 34.505451 26.386521 36.02775 27.401388 31.968285q26.386521 28.416254 48.713578 38.564916t43.639247 10.148662z"  horiz-adv-x="1024" />

    
    <glyph glyph-name="shafa" unicode="&#59274;" d="M675.84 882.688q49.152 0 66.048-21.504t16.896-66.56l0-204.8q0-37.888-18.432-61.44t-69.632-23.552l-310.272 0q-49.152 0-68.608 22.528t-19.456 71.68l0 195.584q0 43.008 18.432 65.536t68.608 22.528l316.416 0zM714.752 449.536q24.576 0 34.304-12.288t9.728-32.768l0-82.944q0-21.504-11.264-35.328t-39.936-13.824l-384 0q-23.552 0-37.376 9.216t-13.824 38.912l0 84.992q0 44.032 49.152 44.032l393.216 0zM804.864 218.112l0 332.8q0 27.648 15.872 39.936t39.424 12.288l47.104 0q29.696 0 39.424-18.432t9.728-37.888l0-37.888 0-77.824 0-100.352 0-101.376 0-81.92 0-43.008q0-61.44-59.392-61.44l-35.84 0 0-90.112-65.536 0 0 90.112-559.104 0 0-90.112-64.512 0 0 90.112-40.96 0q-54.272 0-56.32 63.488l0 445.44q0 25.6 15.36 38.4t38.912 12.8l39.936 0q29.696 0 43.52-15.872t14.848-41.472l0-22.528q0-16.384-0.512-40.448t-0.512-52.736l0-58.368 0-153.6 578.56 0z"  horiz-adv-x="1024" />

    
    <glyph glyph-name="naiping" unicode="&#59275;" d="M512.984615 896q15.753846 0 21.661538-6.4t6.892308-12.307692q0.984615-10.830769-1.969231-15.753846t0-14.769231q1.969231-4.923077 6.4-11.323077t17.230769-10.338462q13.784615-3.938462 30.030769-11.815385t30.030769-26.584615q3.938462-5.907692 7.384615-13.784615t5.415385-15.753846q2.953846-8.861538 3.938462-16.738462l-254.030769 0q0.984615 6.892308 2.953846 13.784615 1.969231 5.907692 3.938462 12.8t6.892308 14.769231q7.876923 13.784615 24.615385 25.6t33.476923 16.738462 19.2 8.369231 7.384615 9.353846q3.938462 4.923077 2.953846 13.292308t-2.953846 16.246154q-2.953846 12.8 7.384615 18.707692t21.169231 5.907692zM688.246154 660.676923q0-42.338462-42.338462-42.338462l-265.846154 0q-42.338462 0-42.338462 42.338462 0 19.692308 12.307692 30.523077t30.030769 10.830769l265.846154 0q21.661538 0 32-12.307692t10.338462-29.046154zM561.230769 576.984615q29.538462 0 55.630769-3.938462t45.292308-15.753846 30.523077-33.476923 11.323077-56.123077l0-391.876923q0-26.584615-5.415385-42.830769t-16.738462-25.107692-28.061538-11.815385-39.384615-2.953846l-45.292308 0-46.276923 0q-23.630769 0-50.215385-0.492308t-59.076923-0.492308-50.707692 6.4-27.569231 18.707692-11.323077 29.538462-1.969231 39.876923l0 354.461538q0 33.476923 2.461538 50.707692t9.353846 33.969231q6.892308 17.723077 25.107692 27.569231t38.892308 15.261538 38.4 6.892308 24.615385 1.476923l52.184615 0 11.815385 0q5.907692 0 14.769231-0.492308t21.661538 0.492308zM457.846154 425.353846q0 13.784615-9.846154 23.630769t-23.630769 9.846154-23.630769-9.846154-9.846154-23.630769l0-281.6q0-13.784615 9.846154-23.630769t23.630769-9.846154 23.630769 9.846154 9.846154 23.630769l0 281.6z"  horiz-adv-x="1024" />

    
    <glyph glyph-name="tushu" unicode="&#59276;" d="M947.701961 272.564706l-694.713725 0q-11.043137 0-23.090196-6.023529t-22.588235-18.070588-17.066667-28.611765-6.52549-37.647059 5.521569-39.152941 14.556863-32.12549 22.086275-22.086275 28.109804-8.031373l693.709804 0q-12.047059 12.047059-21.082353 27.105882-8.031373 13.05098-14.556863 31.121569t-6.52549 41.160784q0 26.101961 6.52549 43.168627t14.556863 28.109804q9.035294 12.047059 21.082353 21.082353zM947.701961-1.505882q0-17.066667-22.086275-17.066667l-733.866667 0q-34.133333 0-57.223529 14.054902t-37.647059 38.65098-20.580392 58.729412-6.023529 73.286275l0 582.27451q0 77.301961 41.160784 111.937255t117.458824 34.635294l34.133333 0 68.266667 0 93.364706 0q51.2 0 104.909804 0.501961t104.909804 0.501961l94.368627 0 70.27451 0 35.137255 0q28.109804 0 49.192157-11.545098t35.137255-32.12549 21.584314-48.690196 7.529412-60.235294l0-406.588235q-191.74902 0-345.34902 1.003922l-128.501961 0q-64.25098 0-114.94902 0.501961t-83.827451 0.501961l-37.145098 0q-21.082353 0-41.160784-12.54902t-36.141176-34.133333-26.101961-50.196078-10.039216-59.733333q0-38.14902 10.541176-68.768627t27.607843-51.701961 37.647059-32.627451 40.658824-11.545098l685.678431 0q8.031373 0 14.556863-4.517647t6.52549-14.556863zM515.011765 896l0-388.517647 77.301961 108.423529 76.298039-108.423529 0 388.517647-153.6 0z"  horiz-adv-x="1024" />

    
    <glyph glyph-name="shouji2" unicode="&#59277;" d="M820.409449 98.771654q0-25.19685-10.07874-46.866142t-27.716535-38.299213-41.322835-26.204724-50.897638-9.574803l-357.795276 0q-27.212598 0-50.897638 9.574803t-41.322835 26.204724-27.716535 38.299213-10.07874 46.866142l0 675.275591q0 25.19685 10.07874 47.370079t27.716535 38.80315 41.322835 26.204724 50.897638 9.574803l357.795276 0q27.212598 0 50.897638-9.574803t41.322835-26.204724 27.716535-38.80315 10.07874-47.370079l0-675.275591zM738.771654 725.669291l-455.559055 0 0-577.511811 455.559055 0 0 577.511811zM510.992126 119.937008q-21.165354 0-36.787402-15.11811t-15.622047-37.291339q0-21.165354 15.622047-36.787402t36.787402-15.622047q22.173228 0 37.291339 15.622047t15.11811 36.787402q0 22.173228-15.11811 37.291339t-37.291339 15.11811zM591.622047 811.338583q0 8.062992-5.03937 12.598425t-11.086614 4.535433l-128 0q-5.03937 0-10.582677-4.535433t-5.543307-12.598425 5.03937-12.598425 11.086614-4.535433l128 0q6.047244 0 11.086614 4.535433t5.03937 12.598425z"  horiz-adv-x="1024" />

    
    <glyph glyph-name="gouwucheman" unicode="&#59278;" d="M346.112 89.088q19.456 0 36.864-7.168t30.208-19.968 20.48-30.208 7.68-36.864-7.68-36.864-20.48-30.208-30.208-20.48-36.864-7.68q-20.48 0-37.888 7.68t-30.208 20.48-20.48 30.208-7.68 36.864 7.68 36.864 20.48 30.208 30.208 19.968 37.888 7.168zM772.096 87.04q19.456 0 37.376-7.168t30.72-19.968 20.48-30.208 7.68-36.864-7.68-36.864-20.48-30.208-30.72-20.48-37.376-7.68-36.864 7.68-30.208 20.48-20.48 30.208-7.68 36.864 7.68 36.864 20.48 30.208 30.208 19.968 36.864 7.168zM944.128 668.672q28.672 0 44.544-7.68t22.528-18.944 6.144-24.064-3.584-22.016-13.312-37.888-22.016-62.976-23.552-68.096-18.944-53.248q-13.312-40.96-33.28-56.832t-49.664-15.872l-35.84 0-65.536 0-86.016 0-96.256 0-253.952 0 14.336-92.16 517.12 0q49.152 0 49.152-41.984 0-20.48-9.728-35.328t-38.4-14.848l-49.152 0-94.208 0-118.784 0-119.808 0-99.328 0-55.296 0q-20.48 0-34.304 9.216t-23.04 24.064-14.848 32.256-8.704 32.768q-1.024 6.144-5.632 29.696t-11.264 58.88-14.848 78.848-16.384 87.552q-19.456 103.424-44.032 230.4l-76.8 0q-15.36 0-25.6 7.68t-16.896 18.432-9.216 23.04-2.56 22.528q0 20.48 13.824 33.792t37.376 13.312l21.504 0 21.504 0 25.6 0 34.816 0q20.48 0 32.768-6.144t19.456-15.36 10.24-19.456 5.12-17.408q2.048-8.192 4.096-23.04t4.096-30.208q3.072-18.432 6.144-38.912l700.416 0zM867.328 701.44l-374.784 0 135.168 135.168q23.552 23.552 51.712 24.064t51.712-23.04z"  horiz-adv-x="1024" />

    
    <glyph glyph-name="huangguan" unicode="&#59279;" d="M546.816 822.272q25.6 0 49.152-10.24t40.448-28.16 27.136-41.472 10.24-50.176q0-38.912-19.968-69.632t-51.712-47.104q-11.264-31.744-11.264-65.536 0-37.888 13.824-75.264t37.888-67.584 56.32-49.152 69.12-18.944q31.744 0 59.904 15.36t51.2 39.424 38.912 54.272 23.04 59.904q-27.648 13.312-45.056 39.936t-17.408 59.392q0 22.528 8.192 41.984t22.528 33.792 33.792 23.04 40.96 8.704 40.96-8.704 33.792-23.04 22.528-33.792 8.192-41.984q0-32.768-16.896-58.88t-43.52-39.424q-5.12-51.2-15.36-104.448t-25.6-105.984-35.84-101.888-45.056-90.112q-84.992-31.744-176.128-48.64t-187.392-16.896-186.88 16.896-176.64 48.64q-24.576 40.96-45.056 90.112t-35.84 101.888-26.112 105.984-14.848 104.448q-26.624 13.312-42.496 39.424t-15.872 58.88q0 22.528 8.192 41.984t22.016 33.792 32.768 23.04 40.448 8.704 40.96-8.704 33.792-23.04 22.528-33.792 8.192-41.984q0-33.792-17.408-60.416t-45.056-38.912q7.168-30.72 23.04-60.928t38.912-54.784 51.2-39.936 59.904-15.36q36.864 0 69.12 18.944t56.832 49.152 38.4 68.096 13.824 75.776q0 35.84-14.336 69.632-28.672 17.408-46.592 47.616t-17.92 66.048q0 26.624 10.24 50.176t27.648 41.472 40.448 28.16 49.664 10.24z"  horiz-adv-x="1090" />

    
    <glyph glyph-name="chuzu" unicode="&#59280;" d="M1025.024 115.712l-128 0 0-59.392q0-26.624-18.432-45.056t-45.056-18.432l-64.512 0q-26.624 0-45.056 18.432t-18.432 45.056l0 59.392-384 0 0-59.392q0-26.624-18.944-45.056t-45.568-18.432l-64.512 0q-26.624 0-45.056 18.432t-18.432 45.056l0 59.392-129.024 0 0 201.728q0 57.344 36.352 89.088t91.648 35.84q4.096 17.408 12.8 47.104t18.432 64 20.48 68.608 19.968 60.928q27.648 77.824 115.712 77.824l397.312 0q39.936 0 65.536-22.016t35.84-51.712l21.504-63.488q11.264-34.816 23.04-69.632t22.016-65.024 16.384-46.592q55.296-5.12 91.648-36.864t36.352-88.064l0-201.728zM125.952 247.808q26.624 0 45.568 18.432t18.944 45.056-18.944 45.568-45.568 18.944-45.056-18.944-18.432-45.568 18.432-45.056 45.056-18.432zM793.6 441.344l-37.888 187.392-487.424 0-33.792-187.392 559.104 0zM896 247.808q26.624 0 46.08 19.456t19.456 46.08q0 27.648-19.456 46.592t-46.08 18.944q-27.648 0-46.592-18.944t-18.944-46.592q0-26.624 18.944-46.08t46.592-19.456z"  horiz-adv-x="1026" />

    
    <glyph glyph-name="zuanshi" unicode="&#59281;" d="M321.214785 504.1998l455.224775 2.045954-218.917083-550.361638zM373.386613 703.68032l346.789211-3.068931 61.378621-134.00999-450.10989 3.068931zM274.157842 573.762238l-274.157842 114.573427 147.308691 109.458541 175.952048-91.044955zM0 621.842158l259.836164-115.596404 279.272727-546.26973zM841.91009 507.268731l243.468531 125.826174-512.511489-670.04995zM836.795205 574.785215l-68.539461 141.170829 156.515485 86.953047 135.032967-113.55045zM368.271728 771.196803l-59.332667 15.344655-111.504496 62.401598 130.941059 47.056943 427.604396 0 129.918082-54.217782-124.803197-60.355644-41.942058-10.22977-350.881119 0z"  horiz-adv-x="1086" />

    
    <glyph glyph-name="xiexiangbao" unicode="&#59282;" d="M361.503846 513.171968c0-27.324314-22.143181-49.468621-49.468621-49.468621-27.317248 0-49.470669 22.144307-49.470669 49.468621 0 27.315098 22.153421 49.467597 49.470669 49.467597C339.360666 562.639565 361.503846 540.487066 361.503846 513.171968M361.503846 513.171968c0-27.324314-22.143181-49.468621-49.468621-49.468621-27.317248 0-49.470669 22.144307-49.470669 49.468621 0 27.315098 22.153421 49.467597 49.470669 49.467597C339.360666 562.639565 361.503846 540.487066 361.503846 513.171968M796.873011 513.171968c0-27.324314-22.144205-49.468621-49.469645-49.468621-27.317248 0-49.469645 22.144307-49.469645 49.468621 0 27.315098 22.151373 49.467597 49.469645 49.467597C774.728806 562.639565 796.873011 540.487066 796.873011 513.171968M852.259635-43.328614 199.206993-43.328614c-55.014195 0-99.772314 44.763546-99.772314 99.769242l0 507.918032c0 55.009894 44.758221 99.76617 99.772314 99.76617l653.052677 0c55.014195 0 99.77129-44.756378 99.77129-99.76617l0-507.918032C952.031027 1.434931 907.27383-43.328614 852.259635-43.328614zM199.207014 609.706598c-25.004442 0-45.350707-20.346368-45.350707-45.34784l0-507.918032c0-24.997274 20.346163-45.349888 45.350707-45.349888l653.052677 0c25.004442 0 45.350707 20.353536 45.350707 45.349888l0 507.918032c0 25.002394-20.347187 45.34784-45.350707 45.34784L199.206993 609.706598zM770.627174 519.00887l-54.42063 0L716.206544 745.755114c0 25.002394-20.347187 45.34784-45.350707 45.34784L380.610799 791.102954c-25.004442 0-45.350707-20.346368-45.350707-45.34784l0-226.746234-54.42063 0L280.839462 745.755114c0 55.009894 44.757197 99.767194 99.772314 99.767194L670.855865 845.522308c55.014195 0 99.77129-44.756378 99.77129-99.767194L770.627154 519.00888z"  horiz-adv-x="1024" />

    
    <glyph glyph-name="jingxuanshichang" unicode="&#59283;" d="M627.977626 476.225434c119.09417-1.609626 238.185267-3.234714 357.295821-4.859699-4.320563 15.968666-8.659558 31.970099-12.985242 47.956173-94.425395-72.591258-188.872192-145.212314-283.298611-217.802547-9.083187-6.970778-15.551795-17.022669-11.830886-29.056819 35.275878-113.777357 70.511718-227.553587 105.774285-341.313536 12.613837 9.670246 25.217331 19.389645 37.817856 29.076173-98.232218 67.357082-196.461363 134.754099-294.693581 202.115277-6.971085 4.792115-19.035341 4.890419-25.973555 0L208.141824-43.727667c12.618957-9.687654 25.200947-19.373261 37.821952-29.057843 33.73056 114.214298 67.447808 228.459213 101.16311 342.70423 3.554099 11.964518-2.581914 22.152499-11.829862 29.056819-95.382221 71.316275-190.799155 142.631526-286.198784 213.963059-4.321587-16.00041-8.661606-31.986483-12.985242-47.956173 119.059354 3.234714 238.11881 6.450893 357.196595 9.669222 12.030464 0.334643 21.047194 7.725978 24.833638 18.90048 38.34071 112.771379 76.697907 225.542861 115.056026 338.296832l-49.636478 0c39.850189-112.235213 79.714714-224.469402 119.579238-336.723046 11.026534-31.032832 60.796109-17.659187 49.634406 13.689754-39.846093 112.235213-79.728026 224.47145-119.57719 336.723046-8.614502 24.230912-41.238835 24.733286-49.636454 0-38.35607-112.771379-76.713267-225.541837-115.052954-338.295808 8.260506 6.283059 16.522957 12.582605 24.80087 18.884096-119.077786-3.21833-238.137242-6.434509-357.196595-9.668198-27.38176-0.753152-32.77783-33.195008-13.003674-47.974605 95.414886-71.315251 190.831923-142.630502 286.212096-213.945651-3.9552 9.684582-7.874662 19.371213-11.830886 29.055795-33.732608-114.247066-67.446784-228.458189-101.179494-342.70423-6.049997-20.51113 18.950349-42.393498 37.80352-29.072179 97.058406 68.499046 194.083123 136.983859 291.10569 205.485978-15.284736-10.792858-34.48576 7.003546-12.482765-8.079053 11.142246-7.640986 22.268006-15.282074 33.380557-22.919987 33.763328-23.160525 67.547136-46.316851 101.29408-69.476352 49.132954-33.679053 98.231194-67.35913 147.331379-101.074022 18.783539-12.868096 44.272128 8.344064 37.83936 29.087437-35.254374 113.779405-70.532198 227.520922-105.772237 341.297152-3.956224-9.685606-7.909478-19.371213-11.84727-29.054771 94.426419 72.58921 188.871168 145.194906 283.312947 217.800499 19.222528 14.779597 14.782259 47.586816-13.00265 47.956173-119.110554 1.62601-238.202675 3.250995-357.295821 4.860723C594.746368 528.15319 594.798592 476.677734 627.977626 476.225434"  horiz-adv-x="1024" />

    
    <glyph glyph-name="zhubaoshipin" unicode="&#59284;" d="M1012.57943 562.748006c-62.384333 88.706355-124.767642 177.45152-187.152998 266.178355-5.558784 8.773837-15.641907 14.997606-25.990963 14.997606L495.866405 843.923968l-18.858259 0L201.107351 843.923968c-9.274573 0-16.29993-3.475149-21.120922-8.724685-0.16169-0.164762-0.323379-0.333619-0.483021-0.504525-0.06144-0.07168-0.12585-0.140186-0.188314-0.211866-1.45623-1.581056-2.828493-3.362611-4.073984-5.388698-54.667264-88.779981-109.310976-177.584538-163.970048-266.345165-7.069286-11.485594-4.575437-25.068954 3.217408-34.304307 0.464589-0.687616 0.94761-1.365094 1.465446-2.026189 154.743501-197.936026 309.473792-395.920282 464.213197-593.852211 6.764339-8.662323 15.009485-11.38432 22.812467-10.174771 6.765363-0.012288 13.679104 2.960384 19.571507 10.174771 161.764762 197.93193 323.560141 395.916186 485.335142 593.851187 0.834048 1.021235 1.581056 2.08343 2.281062 3.165082C1017.662362 538.854912 1020.189082 551.915315 1012.57943 562.748006zM929.086464 577.598259 744.622891 577.598259c21.073818 57.48521 42.142515 114.973594 63.218381 172.458803C848.254259 692.574925 888.668365 635.087667 929.086464 577.598259zM501.32183 769.906176c43.903693-64.093798 87.80329-128.202854 131.705958-192.307917l-267.452033 0C410.822042 641.70025 456.066355 705.804186 501.32183 769.906176zM658.999398 517.652992c-52.296192-142.656-104.593306-285.313126-156.88233-427.988582-50.849178 143.119565-101.886566 285.876941-154.817229 427.988582L658.999353 517.652992zM689.525862 600.931738c-41.791488 61.008486-83.577856 122.029261-125.367296 183.049011l192.464152 0C734.256333 722.967142 711.891149 661.94432 689.525862 600.931738zM313.535488 607.451238c-22.372454 58.971136-45.141914 117.820416-68.416922 176.530534l193.015737 0C396.601651 725.14263 355.068006 666.29847 313.535488 607.451238zM195.429786 747.561267c22.282342-56.532582 44.095078-113.194086 65.566925-169.961984L90.795539 577.599283C125.679411 634.255667 160.557158 690.910003 195.429786 747.561267zM283.531878 517.652992c54.76137-146.58857 107.453645-293.868954 159.926784-441.528013C328.409805 223.29897 213.365043 370.476032 98.334515 517.652992L283.531902 517.652992zM722.650624 517.652992l201.057207 0C802.169856 368.950272 680.644198 220.246426 559.121613 71.54985 613.623091 220.25257 668.137882 368.95232 722.650624 517.652992z"  horiz-adv-x="1024" />

    
    <glyph glyph-name="jiajujiancai" unicode="&#59285;" d="M174.908621 562.868838c-91.582464 0-166.084301 74.483405-166.084301 166.05399C8.82432 820.493312 83.325133 894.976717 174.908621 894.976717c91.56096 0 166.060749-74.483405 166.060749-166.052966C340.970394 637.352243 266.469581 562.868838 174.908621 562.868838zM174.908621 827.43849c-54.339789 0-98.542285-44.191437-98.542285-98.516787 0-54.326272 44.202496-98.515763 98.542285-98.515763 54.328525 0 98.518733 44.189389 98.518733 98.515763C273.428378 783.247053 229.237146 827.43849 174.908621 827.43849zM509.459558 562.868838c-91.583488 0-166.082253 74.483405-166.082253 166.05399C343.377306 820.493312 417.87607 894.976717 509.459558 894.976717 601.022566 894.976717 675.522355 820.493312 675.522355 728.922726 675.522355 637.352243 601.022566 562.868838 509.459558 562.868838zM509.459558 827.43849c-54.338765 0-98.542285-44.191437-98.542285-98.516787 0-54.326272 44.20352-98.515763 98.542285-98.515763 54.327501 0 98.518733 44.189389 98.518733 98.515763C607.979315 783.247053 563.789107 827.43849 509.459558 827.43849zM844.01152 562.868838c-91.582464 0-166.081229 74.483405-166.081229 166.05399C677.930291 820.493312 752.428954 894.976717 844.01152 894.976717 935.574528 894.976717 1010.075341 820.493312 1010.075341 728.922726 1010.074317 637.352243 935.574528 562.868838 844.01152 562.868838zM844.01152 827.43849c-54.337741 0-98.542285-44.191437-98.542285-98.516787 0-54.326272 44.204544-98.515763 98.542285-98.515763 54.328525 0 98.519757 44.189389 98.519757 98.515763C942.532301 783.247053 898.340045 827.43849 844.01152 827.43849zM174.908621 222.373888c-91.582464 0-166.084301 74.473165-166.084301 166.040678 0 91.570586 74.500813 166.055014 166.084301 166.055014 91.56096 0 166.060749-74.484429 166.060749-166.055014C340.970394 296.847053 266.469581 222.373888 174.908621 222.373888zM174.908621 486.932275c-54.339789 0-98.542285-44.192461-98.542285-98.517811 0-54.324224 44.202496-98.514739 98.542285-98.514739 54.328525 0 98.518733 44.190413 98.518733 98.514739C273.428378 442.740838 229.237146 486.932275 174.908621 486.932275zM509.459558 222.373888c-91.583488 0-166.082253 74.473165-166.082253 166.040678 0 91.570586 74.498765 166.055014 166.082253 166.055014 91.563008 0 166.061773-74.484429 166.061773-166.055014C675.522355 296.847053 601.022566 222.373888 509.459558 222.373888zM509.459558 486.932275c-54.338765 0-98.542285-44.192461-98.542285-98.517811 0-54.324224 44.20352-98.514739 98.542285-98.514739 54.327501 0 98.518733 44.190413 98.518733 98.514739C607.978291 442.740838 563.789107 486.932275 509.459558 486.932275zM844.01152 222.373888c-91.582464 0-166.081229 74.473165-166.081229 166.040678 0 91.570586 74.498765 166.055014 166.081229 166.055014 91.563008 0 166.062797-74.484429 166.062797-166.055014C1010.074317 296.847053 935.574528 222.373888 844.01152 222.373888zM844.01152 486.932275c-54.337741 0-98.542285-44.192461-98.542285-98.517811 0-54.324224 44.204544-98.514739 98.542285-98.514739 54.328525 0 98.519757 44.190413 98.519757 98.514739C942.532301 442.740838 898.340045 486.932275 844.01152 486.932275zM174.908621-118.179328c-91.582464 0-166.084301 74.485453-166.084301 166.079488 0 91.54601 74.500813 166.029414 166.084301 166.029414 91.56096 0 166.060749-74.483405 166.060749-166.029414C340.970394-43.693875 266.469581-118.179328 174.908621-118.179328zM174.908621 146.391347c-54.339789 0-98.542285-44.190413-98.542285-98.493235 0-54.3488 44.202496-98.541363 98.542285-98.541363 54.328525 0 98.518733 44.192461 98.518733 98.541363C273.428378 102.200934 229.237146 146.391347 174.908621 146.391347zM509.459558-118.179328c-91.583488 0-166.082253 74.485453-166.082253 166.079488 0 91.54601 74.498765 166.029414 166.082253 166.029414 91.563008 0 166.061773-74.483405 166.061773-166.029414C675.522355-43.693875 601.022566-118.179328 509.459558-118.179328zM509.459558 146.391347c-54.338765 0-98.542285-44.190413-98.542285-98.493235 0-54.3488 44.20352-98.541363 98.542285-98.541363 54.327501 0 98.518733 44.192461 98.518733 98.541363C607.979315 102.200934 563.789107 146.391347 509.459558 146.391347zM844.01152-118.179328c-91.582464 0-166.081229 74.485453-166.081229 166.079488 0 91.54601 74.498765 166.029414 166.081229 166.029414 91.563008 0 166.062797-74.483405 166.062797-166.029414C1010.074317-43.693875 935.574528-118.179328 844.01152-118.179328zM844.01152 146.391347c-54.337741 0-98.542285-44.190413-98.542285-98.493235 0-54.3488 44.204544-98.541363 98.542285-98.541363 54.328525 0 98.519757 44.192461 98.519757 98.541363C942.532301 102.200934 898.340045 146.391347 844.01152 146.391347z"  horiz-adv-x="1024" />

    
    <glyph glyph-name="jiayongdianqi" unicode="&#59286;" d="M384.277504 871.403827 124.906802 871.403827c-60.50857 0-109.732557-49.232282-109.732557-109.728051l0-738.190579c0-60.478464 49.226138-109.730099 109.732557-109.730099L384.277455-86.244902c60.509594 0 109.734605 49.252762 109.734605 109.731123L494.01206 761.674689C494.014157 822.169498 444.788019 871.403827 384.277504 871.403827zM434.157466 23.485133c0-27.512627-22.375526-49.878016-49.880064-49.878016L124.906802-26.392883c-27.50249 0-49.880064 22.365389-49.880064 49.878016L75.026738 761.674689c0 27.508531 22.378598 49.878016 49.880064 49.878016L384.277455 811.552705c27.505562 0 49.880064-22.368461 49.880064-49.878016L434.157519 23.485133zM903.022899 871.403827 643.651178 871.403827c-60.506522 0-109.733581-49.232282-109.733581-109.728051l0-738.190579c0-60.478464 49.227162-109.730099 109.733581-109.730099L903.022854-86.244902c60.50857 0 109.732557 49.252762 109.732557 109.731123L1012.755411 761.674689C1012.75648 822.169498 963.531366 871.403827 903.022899 871.403827zM952.899789 23.485133c0-27.512627-22.374502-49.878016-49.876992-49.878016L643.651178-26.392883c-27.501466 0-49.87904 22.365389-49.87904 49.878016L593.772138 352.68376l359.128675 0L952.900813 23.485133 952.899789 23.485133zM952.899789 412.533862 593.772167 412.533862 593.772167 761.674689c0 27.508531 22.377574 49.878016 49.87904 49.878016L903.022854 811.552705c27.50249 0 49.876992-22.368461 49.876992-49.878016L952.899846 412.53387zM114.9312 771.648819l279.322829 0 0-59.849114-279.322829 0 0 59.849114ZM114.9312 671.894938l279.322829 0 0-59.850138-279.322829 0 0 59.850138ZM114.9312 572.144026l279.322829 0 0-59.855258-279.322829 0 0 59.855258ZM675.245056 522.265088c-19.298304 0-34.912563-15.644262-34.912563-34.914202s15.614259-34.91113 34.912563-34.91113c19.270656 0 34.913587 15.642214 34.913587 34.91113S694.515712 522.265088 675.245056 522.265088zM675.245056 232.96512c19.270656 0 34.913587 15.66679 34.913587 34.915226 0 19.288269-15.642931 34.913178-34.913587 34.912154-19.298304 0-34.912563-15.625933-34.912563-34.912154C640.332493 248.63191 655.946752 232.96512 675.245056 232.96512z"  horiz-adv-x="1024" />

    
    <glyph glyph-name="shipin1" unicode="&#59287;" d="M7.696589 452.295475 7.696589 276.16297c0-196.998758 175.669965-267.305984 238.954906-286.242304l0-70.669526 533.053853 0 0.002047 0 0 70.505797c63.622554 18.66711 238.95593 88.996966 238.95593 297.104691L1018.663323 452.296479 7.696589 452.295475 7.696589 452.295475zM963.516006 286.861619c0-206.405939-207.478682-246.952448-216.256-248.568218l-22.696858-4.056371 0-59.84397L301.795596-25.606939l-0.055296 59.466342-22.256845 4.362342c-8.850944 1.738547-216.645837 44.730778-216.645837 237.940224l0 29.080316 900.677341 0L963.514959 286.861636zM963.516006 342.011699 62.839715 342.011699l0 55.142901 900.677341 0L963.516006 342.011699 963.516006 342.011699zM430.463181 783.143629l569.815552 0 0-55.142912-569.815552 0 0 55.142912ZM26.076979 783.143629l55.145165 0 0-55.142912-55.145165 0 0 55.142912ZM26.076979 672.860877l55.145165 0 0-55.142912-55.145165 0 0 55.142912ZM430.463181 672.860877l569.815552 0 0-55.142912-569.815552 0 0 55.142912ZM91.54263 475.871437c57.87136 12.311347 78.389453 58.247578 81.384858 83.449549l0.189338 207.162163c0 34.474189 37.983642 44.166963 43.098317 44.230349l-0.008192 55.140864c-33.180058 0-98.231194-30.003302-98.231194-99.371213l0-201.754027c-1.076531-5.339648-7.476531-28.448973-37.904794-34.920346L91.54263 475.871437zM201.829786 475.871437c57.872384 12.311347 78.388429 58.247578 81.385882 83.449549l0.189338 207.162163c0 34.474189 37.984666 44.166963 43.099341 44.230349l-0.009216 55.140864c-33.181082 0-98.234266-30.003302-98.234266-99.371213l0-201.754027c-1.077555-5.339648-7.473562-28.448973-37.902746-34.920346L201.829786 475.871437zM312.114995 475.871437c57.875456 12.311347 78.389453 58.247578 81.38793 83.449549l0.18729 207.162163c0 34.474189 37.982618 44.166963 43.100365 44.230349l-0.009216 55.140864c-33.181082 0-98.233242-30.003302-98.233242-99.371213l0-201.754027c-1.078579-5.339648-7.475507-28.448973-37.902746-34.920346L312.114995 475.871437z"  horiz-adv-x="1024" />

    
    <glyph glyph-name="muyingwanju" unicode="&#59288;" d="M50.372301 468.153651l6.285414-3.78624 468.314803 0L414.971802 825.680486l-0.771584 2.173542c-4.061696 10.095923-26.420838 60.427264-67.221709 60.427264-5.196595 0-10.373632-0.858522-15.388058-2.523443-30.558208-10.166579-33.462477-39.796429-35.024077-55.714918-0.352051-3.606118-0.876032-8.973414-1.570816-12.337971-2.274918 2.138726-4.921242 4.953805-6.794035 6.952346-9.803674 10.46743-23.241216 24.804966-43.771699 24.804966-7.582003 0-14.991053-2.04247-22.023475-6.061056-30.085427-17.180262-24.049664-49.205658-21.139251-64.593101 0.584294-3.134362 1.441894-7.66761 1.768346-11.067085-1.656832 0.601702-3.442586 1.29751-4.878336 1.863475-7.993344 3.133338-17.944371 7.031091-29.718016 7.031091-10.911949 0-26.926285-3.562086-41.255219-20.545946-26.522112-31.431885-5.993779-60.504986 2.781491-72.919757 1.47671-2.095718 3.461939-4.910797 4.75648-7.067955-0.008192-0.008192-0.016384-0.016384-0.024576-0.023552-1.313997 0.342835-3.02295 0.892314-4.302131 1.296486-5.461606 1.73353-12.25257 3.890586-20.393267 3.890586-10.724659 0-26.075955-3.880346-38.312141-22.402253-21.809562-32.985293 3.631821-59.67104 15.85879-72.489984 2.307686-2.421146 5.383885-5.650739 7.522611-8.269312-2.540954-0.08489-6.595482 0.291635-9.943859 0.64471-4.685926 0.479949-9.316557 0.908698-13.754778 0.908698-26.787123 0-39.915725-15.454003-46.210355-28.410061C6.445056 512.732979 29.979034 480.456806 50.372301 468.153651zM72.155238 526.89961c2.445824-0.052224 4.988826-0.352051 7.556403-0.61911 4.75648-0.496333 9.590784-0.943514 14.339174-0.943514 21.088154 0 37.308211 8.783053 48.211968 26.101453 20.487475 32.513536-4.516045 58.735718-16.526029 71.340851-0.472781 0.489165-0.980378 1.020211-1.504358 1.570816 3.614515-0.79104 7.634227-1.36407 11.977216-1.36407 16.273306 0 30.413926 7.743386 42.040115 23.026483 22.049075 29.012787 2.961613 56.04137-5.194547 67.587277-1.79497 2.542899-4.309299 6.104064-5.563904 8.45865 0 0 0.008192 0.007168 0.01536 0.016384 0.800256 0.954778 1.400934 1.511424 1.538048 1.761075 2.179686-0.334643 6.739763-2.11927 9.855898-3.340083 7.710925-3.022848 17.319117-6.792704 28.472627-6.792704 11.549491 0 22.383718 4.147507 31.340032 11.987046 20.580557 18.00407 18.116301 42.104934 15.216128 58.453299 9.898803-10.224845 23.09591-21.652173 42.251981-21.652173 6.636442 0 13.239091 1.467392 19.654451 4.360294 28.824678 13.02569 31.588659 41.211597 33.237299 58.05015 0.224154 2.293248 0.507597 5.168742 0.859648 7.71881 4.85888-4.902707 11.119718-14.569882 14.958285-23.559578l88.884941-291.939021L73.323917 517.121946C71.623066 519.446835 70.670336 522.639565 72.155238 526.89961zM290.993152 55.546368c-48.107622 0-87.253709-39.13431-87.253709-87.230669 0-48.101581 39.145062-87.232717 87.253709-87.232717 48.100454 0 87.236301 39.131238 87.236301 87.232717C378.230477 16.412058 339.095654 55.546368 290.993152 55.546368zM290.993152-66.165658c-19.026125 0-34.497024 15.469363-34.497024 34.480333 0 19.006874 15.471002 34.479309 34.497024 34.479309 19.010765 0 34.482688-15.472435 34.482688-34.479309C325.477888-50.694349 310.003917-66.165658 290.993152-66.165658zM581.142016 55.546368c-48.110694 0-87.254733-39.13431-87.254733-87.230669 0-48.101581 39.144038-87.232717 87.254733-87.232717 48.100454 0 87.238349 39.131238 87.238349 87.232717C668.381389 16.412058 629.24247 55.546368 581.142016 55.546368zM581.142016-66.165658c-19.027149 0-34.499072 15.469363-34.499072 34.480333 0 19.006874 15.472026 34.479309 34.499072 34.479309 19.008717 0 34.480742-15.472435 34.480742-34.479309C615.62368-50.694349 600.151757-66.165658 581.142016-66.165658zM987.765248 774.173389c-38.827827 38.827315-80.482202 56.951091-132.675072 29.880525-32.250778-16.725914-50.118451-62.161715-67.72009-91.311616-53.258138-88.220262-105.474458-177.060659-157.587456-265.957274L32.151551 446.785024l3.134566-29.190861c0.376627-3.582566 42.63168-358.386381 404.164198-358.386381 290.448691 0 378.301133 235.453542 384.186368 359.959245l1.293517 27.620045L690.999449 446.787072c30.138675 51.289088 60.363162 102.520934 90.727014 153.662771 22.986445 38.713754 46.076211 77.385523 69.482291 115.842355 25.002394 41.074483 53.929472 65.922458 99.254579 20.58793C974.539571 712.810803 1011.841638 750.108262 987.765248 774.173389zM439.451238 111.958118c-259.40951 0-329.353318 204.266291-346.576282 282.073293l674.915487 0C755.762074 317.676442 699.237376 111.958118 439.451238 111.958118z"  horiz-adv-x="1024" />

    
    <glyph glyph-name="shumashouji" unicode="&#59289;" d="M751.006515 112.540365 255.109431 112.540365l0 683.977863 495.897106 0L751.006537 112.540402zM306.409882 163.837747l393.297246 0L699.707127 745.220948 306.409873 745.220948 306.409873 163.837718 306.409882 163.837747zM548.413235 28.077773c0-23.175885-18.795827-41.946317-41.964442-41.946317-23.169638 0-41.965466 18.770534-41.965466 41.946317 0 23.176909 18.794803 41.981133 41.965466 41.981133C529.617408 70.05993 548.413235 51.255603 548.413235 28.077773M749.293466-109.751398 256.820469-109.751398c-48.086118 0-87.212749 39.143526-87.212749 87.217459L169.607721 794.807297c0 48.083149 39.126733 87.207219 87.212749 87.207219l492.472983 0c48.086118 0 87.213773-39.125094 87.213773-87.207219l0-817.341267C836.506214-70.607872 797.379584-109.751398 749.293466-109.751398zM256.820429 830.716109c-19.805901 0-35.911373-16.104755-35.911373-35.908813l0-817.341267c0-19.804058 16.106496-35.918029 35.911373-35.918029l492.472983 0c19.805901 0 35.913421 16.112947 35.913421 35.918029L785.206832 794.807297c0 19.804058-16.106496 35.908813-35.913421 35.908813L256.820469 830.716109z"  horiz-adv-x="1024" />

    
    <glyph glyph-name="xiebao" unicode="&#59290;" d="M321.240269 515.606426c0-31.214899-25.295155-56.511078-56.511283-56.511078-31.20599 0-56.513331 25.296179-56.513331 56.511078 0 31.203635 25.306419 56.510054 56.513331 56.510054C295.945114 572.116378 321.240269 546.810061 321.240269 515.606426M321.240269 515.606426c0-31.214899-25.295155-56.511078-56.511283-56.511078-31.20599 0-56.513331 25.296179-56.513331 56.511078 0 31.203635 25.306419 56.510054 56.513331 56.510054C295.945114 572.116378 321.240269 546.810061 321.240269 515.606426M818.587443 515.606426c0-31.214899-25.298227-56.511078-56.513331-56.511078-31.207014 0-56.512307 25.296179-56.512307 56.511078 0 31.203635 25.305395 56.510054 56.512307 56.510054C793.29024 572.116378 818.587443 546.810061 818.587443 515.606426M881.857946-120.115405 135.83923-120.115405c-62.846874 0-113.975398 51.136614-113.975398 113.972736L21.863832 574.079126c0 62.842266 51.128525 113.969664 113.975398 113.969664l746.017715 0c62.84585 0 113.975398-51.127398 113.975398-113.969664l0-580.221778C995.833344-68.97879 944.703795-120.115405 881.857946-120.115405zM135.839232 625.882931c-28.564685 0-51.807027-23.242342-51.807027-51.804877l0-580.221778c0-28.55639 23.243264-51.807949 51.807027-51.807949l746.017715 0c28.565709 0 51.809075 23.252582 51.809075 51.807949L933.666022 574.079126c0 28.562534-23.244288 51.804877-51.809075 51.804877L135.83923 625.884003 135.839232 625.882931zM788.606362 522.274202l-62.169422 0L726.43694 781.299655c0 28.56151-23.244288 51.802829-51.806003 51.802829L343.067226 833.102484c-28.564685 0-51.808051-23.243366-51.808051-51.802829l0-259.024381-62.167375 0L229.0918 781.299655c0 62.841242 51.128525 113.96864 113.975398 113.96864l331.561723 0c62.84585 0 113.975398-51.126374 113.975398-113.96864L788.60432 522.27425z"  horiz-adv-x="1024" />

    
    <glyph glyph-name="nvzhuangneiyi" unicode="&#59291;" d="M661.063475 386.06295l65.152512 241.958707L607.099187 739.89161l-98.497229-73.18784-99.715072 74.983834L290.520371 627.471155l73.224602-241.739674L14.107853 102.489498l142.623027-145.367859 124.071731 107.372442 109.085798-105.506918 122.210304 105.691136 115.165594-106.223309L743.188173 66.753638l112.670618-109.797683 156.235571 144.739533L661.063475 386.06295zM412.677427 680.117146l95.755674-72.019251 95.151923 70.712525 69.995008-65.747456-57.124352-212.164096-208.271811 0-64.436122 212.715725L412.677427 680.117146zM743.877939 131.623014 627.06985 22.495642l-113.960038 105.09353L391.661978 22.576435l-109.09911 105.502822L159.35785 21.471232l-75.594752 77.043712 315.325235 255.451034 227.040016 0 314.340864-254.654874-83.784602-77.609574L743.877939 131.623014zM437.38921 767.259853c12.062208 0 21.823898 9.778688 21.823898 21.825024 0 12.046336-9.76169 21.824102-21.823898 21.824102-12.046848 0-21.809562-9.777664-21.809562-21.824102C415.578624 777.038643 425.342362 767.259853 437.38921 767.259853zM504.995738 767.259853c12.062208 0 21.82185 9.778688 21.82185 21.825024 0 12.046336-9.760666 21.824102-21.82185 21.824102-12.047872 0-21.80137-9.777664-21.80137-21.824102S492.94889 767.259853 504.995738 767.259853zM572.608307 767.259853c12.06528 0 21.823898 9.778688 21.823898 21.825024 0 12.046336-9.760666 21.824102-21.823898 21.824102-12.045824 0-21.808538-9.777664-21.808538-21.824102S560.562483 767.259853 572.608307 767.259853z"  horiz-adv-x="1024" />

    
    <glyph glyph-name="huwaiyundong" unicode="&#59292;" d="M435.084595 84.677837c-26.740122 0-39.900365 6.047744-47.771955 22.177075-3.18976 0.343859-10.957005 0.137114-16.459571-0.497357-12.793856-18.863616-31.691059-21.568205-47.45472-21.568205-5.433958 0-11.502387 0.317235-18.296422 0.690688-4.405555 0.248627-9.142579 0.496333-14.243942 0.68864-30.110003 1.077555-40.929792 14.50025-46.273741 27.41033-3.956224 0.346931-8.796672 0.510669-13.587968 0.470733-10.024755-8.851558-29.357773-17.51081-66.58519-17.828045-0.014336 0-0.028672 0-0.034816 0-26.568192 0-45.382451 6.767104-57.147904 20.104909-3.39753 3.864986-5.813658 7.817011-7.532851 11.626803-21.356237 2.195968-34.943283 6.848-42.663424 10.424422-27.832013 2.80279-34.473574 45.279232-37.421773 91.066061-6.082765 94.159565 51.866317 134.381568 108.123853 140.624794 14.719795 1.63625 32.201728 2.465178 51.955405 2.465178 28.611789 0 53.447475-1.720218 60.50345-2.251264 93.645517 9.975194 272.235213 156.413338 274.485555 244.526182 2.457088 95.766118 69.638861 103.209677 90.17129 103.209677 20.9152 0 39.985254-5.807309 50.845082-11.240038l2.893005-1.457152c18.836787-9.506509 62.955315-31.772672 120.040755-31.772672 20.22441 0 40.441651 2.831462 60.089958 8.409498 23.206502 6.586982 44.39593 9.920922 62.990131 9.920922 39.666995 0 60.759245-14.975078 71.475712-27.533107 12.178842-14.285312 17.432781-33.278976 14.414848-52.111872-3.733197-23.371264-0.57815-47.404646 0.697958-55.414067 30.890803-59.926835 35.137638-124.80553 37.443277-159.941734 0.516813-8.000205 1.168691-17.841357 1.893171-21.408563 13.221683-27.085926 6.419456-124.758426 1.731482-145.415885-6.559642-28.914586-8.664678-46.587085-8.664678-72.799027 0-33.526579-25.6768-48.784077-49.532109-48.784077l-1.525862 0.027648c0.994714-0.234291-159.292314 1.286246-185.536102 1.286246-33.562726 0-48.766669 23.085773-52.122214 35.29175l-0.745984 5.136998-1.215693 54.391808c-2.478592 0.938394-6.59241 2.113126-13.118259 2.996224-23.115366 3.079168-61.88288-24.164352-82.535117-42.502042-23.219814-41.108275-89.356698-50.923827-120.025395-53.272269-12.104192-25.214259-34.260685-25.877402-65.448243-26.814669l-6.876877-0.222106C439.538278 84.704461 437.23264 84.677837 435.084595 84.677837zM424.390656 127.704781c2.574746-0.385741 8.064-0.759296 16.252826-0.526029l6.973133 0.221082c12.428595 0.387789 25.276723 0.774656 28.618957 2.334208-0.199578 0.04096 0.863744 1.961677 2.306662 7.719834l3.956224 15.795712 16.31529 0.262963c27.41033 0.428749 87.761306 9.236378 99.312845 33.789542l1.75401 3.726848 3.015782 2.791629c6.62313 6.144922 70.046106 62.496358 119.696896 55.81312 24.70359-3.342131 40.189952-11.764941 47.344128-25.752474 4.342067-8.478106 4.411699-17.108685 2.61673-23.956582l1.001882-44.518912c1.208525-1.298534 4.14249-3.20297 10.550682-3.20297 26.297958 0 186.66793-1.298534 186.66793-1.298534 0.007168 0 0.02048 0 0.034816 0 7.47049 0 7.47049 2.80279 7.47049 6.349619 0 29.441536 2.450944 50.181939 9.714688 82.186854 5.784986 25.46391 6.324326 100.864205 2.202214 116.12887-4.786176 7.898931-5.455462 18.171904-6.787891 38.539776-2.284134 34.830234-6.104269 93.130035-34.162381 145.842586l-1.464422 2.748621-0.607846 3.058688c-0.303923 1.498112-7.243264 36.991488-1.457254 73.16951 0.61399 3.851674 0.807424 11.301376-4.8128 17.895629-12.530893 14.679347-46.902067 16.708506-90.607206 4.32855-23.412122-6.649446-47.522202-10.024346-71.668122-10.024346-67.178701 0-117.617459 25.447629-139.15177 36.322304l-2.754867 1.380454c-4.673638 2.339328-17.350861 6.765056-31.872205 6.765056-11.418522 0-46.175539 0-47.762739-61.8752-2.845901-111.446221-200.457523-275.59168-314.795213-285.860557l-1.83081-0.158618-1.822618 0.15145c-0.276275 0.021504-27.603763 2.258432-58.949939 2.258432-18.199245 0-34.108211-0.74496-47.274598-2.201088-28.424499-3.155866-75.375718-19.787674-70.466765-95.746662 1.954611-30.393242 5.316301-45.030605 7.463322-51.603251l4.839424-3.505869c-0.006144 0-0.006144 0-0.006144 0 0.13097 0 12.462285-6.794752 43.38688-7.788339l26.761626-0.869786-6.4-22.991667c0.200602-2.677965 9.031066-6.780416 25.201971-6.780416 25.200947 0.20777 35.267686 4.57216 38.42263 6.421197l3.100774 10.051891 14.568346 0.995635c0 0 5.509734 0.372531 13.035418 0.372531 10.218086 0 19.06903-0.678502 26.319462-1.988301 17.661952-3.21833 22.687642-17.715507 24.579789-23.184998 0.172954-0.497357 0.324403-1.034547 0.525005-1.573888 1.172787-0.387789 3.776205-0.994611 8.623718-1.159373 5.391974-0.193434 10.404352-0.469709 15.058534-0.731648 5.931315-0.319283 11.227136-0.621158 15.969382-0.621158 11.48201 0 11.916902 1.021235 14.334054 6.764032l4.364595 10.356838 11.02551 2.208256c1.518694 0.304947 15.286784 2.983936 29.164442 2.983936 13.801882 0 23.668019-2.596147 31.056589-8.11991C419.528704 136.763085 422.615142 131.403981 424.390656 127.704781zM573.974426 431.728026c0-15.22985-12.345651-27.576013-27.576115-27.576013-15.238656 0-27.583283 12.345139-27.583283 27.576013 0 15.230874 12.344627 27.576013 27.583283 27.576013C561.628774 459.304038 573.974426 446.958899 573.974426 431.728026M637.012685 515.780301c0-15.22985-12.343603-27.576013-27.569971-27.576013-15.243776 0-27.588403 12.346163-27.588403 27.576013 0 15.223706 12.343603 27.567821 27.588403 27.567821C624.669082 543.349248 637.012685 531.004109 637.012685 515.780301M494.994534 373.194957c0-15.532749-12.593357-28.132762-28.149248-28.132762-15.541555 0-28.14208 12.600013-28.14208 28.132762 0 15.541965 12.600525 28.141978 28.14208 28.141978C482.401178 401.336832 494.994534 388.737946 494.994534 373.194957"  horiz-adv-x="1036" />

    
    <glyph glyph-name="huazhuangpin" unicode="&#59293;" d="M681.991987 535.342899 681.991987 670.462291l-1.923891 4.973261C661.103309 724.5184 553.642598 910.584115 458.863206 892.752998c-73.05175-13.626368-81.503539-125.917798-81.503539-209.193472l0-148.220786c-33.87177-17.363456-57.118208-52.618445-57.118208-93.223219l0-456.938963c0-57.730867 46.975795-104.712909 104.716186-104.712909L634.393971-119.536351c57.74039 0 104.716186 46.982042 104.716186 104.712909L739.110157 442.117652C739.111117 482.721382 715.863757 517.976371 681.991987 535.342899zM424.958566 489.714688 634.393971 489.714688c22.984397 0 42.217165-16.380109 46.639104-38.078259l-302.71661 0C382.740378 473.334682 401.97417 489.714688 424.958566 489.714688zM469.342208 836.603187c36.219392 6.778368 124.294861-101.123072 155.531469-176.954163l0-112.817462L434.478821 546.831562 434.478821 683.56061C434.478797 799.243366 456.390758 834.198426 469.342208 836.603187zM681.991987-14.821274c0-26.24983-21.353165-47.596032-47.597978-47.596032L424.958613-62.417306c-26.244813 0-47.597978 21.345178-47.597978 47.596032L377.360636 413.560246l304.632317 0L681.991987-14.821274 681.991987-14.821274z"  horiz-adv-x="1024" />

    
    <glyph glyph-name="qichepeijian" unicode="&#59294;" d="M916.879974 598.629274l1.264858 0L918.144833 717.892533c0 75.388006-59.061555 134.44608-134.453658 134.44608L279.901063 852.338613c-77.765222 0-145.983693-62.831002-145.983693-134.44608l0-119.264291 8.980903 0C53.968282 554.779546 18.59113 457.753805 18.59113 390.441677l0-201.534016c0-47.474278 24.289178-91.31264 59.908813-117.81632-0.647782-2.606387-1.028506-5.309952-1.028506-8.093286L77.471437-12.593574c0-18.87488 15.732941-34.59799 34.597376-34.59799l75.571189 0c10.839347 0 19.022029 4.102451 24.596173 10.286285 6.021427 5.562675 10.002227 13.646848 10.002227 24.311706l0 57.662281L841.36613 45.068707 841.36613-12.593574c0-18.87488 15.734989-34.59799 34.599424-34.59799l75.561979 0c10.887373 0 19.098726 4.135219 24.675021 10.360934 5.974323 5.563699 9.920307 13.620224 9.920307 24.237056l0 75.590606c0 3.410637-0.530125 6.71703-1.487974 9.851392 30.052659 25.74336 48.836198 67.339674 48.836198 116.058317L1033.471085 390.441713C1033.471078 449.917338 997.449216 552.879309 916.879974 598.629274zM203.113062 717.892506c0 36.747981 41.276723 65.253171 76.786893 65.253171l503.791213 0c36.592845 0 65.256858-28.662784 65.256858-65.253171l0-97.365538c-6.855373 0.7552-13.905203 1.166541-21.174067 1.166541L248.412641 621.693508c-16.05632 0-31.137382-1.315942-45.298483-3.752448L203.114158 717.892533zM779.751322 160.392294 272.31089 160.392294l0-46.130643L153.942259 114.261651c-34.620928 0-66.155315 35.587482-66.155315 74.645094L87.786944 390.441713c0 1.619866 4.369715 162.058957 160.624742 162.058957l579.362402 0c103.806362 0 136.500326-126.327194 136.500326-162.058957l0-201.534016c0-36.196352-19.144806-74.645094-54.622208-74.645094L779.751362 114.262602 779.751362 160.392246zM268.943053 469.116518c-65.131008 0-118.108672-52.976538-118.108672-118.093619 0-65.115034 52.977664-118.092595 118.108672-118.092595 65.120768 0 118.098432 52.977562 118.098432 118.092595C387.041485 416.139981 334.063821 469.116518 268.943053 469.116518zM268.943053 302.125261c-26.974413 0-48.912998 21.93664-48.912998 48.896614 0 26.963046 21.938586 48.90071 48.912998 48.90071 26.963149 0 48.901734-21.937664 48.901734-48.90071C317.844787 324.061901 295.906202 302.125261 268.943053 302.125261zM782.049792 469.116518c-62.843802 0-113.966182-51.117261-113.966182-113.947238 0-62.821786 51.122381-113.927782 113.966182-113.927782 62.833562 0 113.94263 51.105997 113.94263 113.927782C895.991398 417.998336 844.883354 469.116518 782.049792 469.116518zM782.049792 310.434509c-24.687206 0-44.769485 20.069069-44.769485 44.734874 0 24.670925 20.082176 44.753306 44.769485 44.753306 24.673997 0 44.745933-20.082381 44.745933-44.753306C826.794701 330.504602 806.723789 310.434509 782.049792 310.434509z"  horiz-adv-x="1034" />

    
    <glyph glyph-name="jiafangjiashi" unicode="&#59295;" d="M353.667326 461.347087l343.203107 0c46.057075 0 83.531315 37.472721 83.531315 83.527974L780.401748 812.4538c0 46.065378-37.47424 83.546199-83.531315 83.546199L353.667335 896c-46.057075 0-83.531315-37.480822-83.531315-83.546199l0-267.578803C270.136011 498.819808 307.610251 461.347087 353.667326 461.347087zM326.83207 812.453836c0 14.810417 12.042456 26.85338 26.835255 26.85338l343.203107 0c14.792799 0 26.834243-12.04195 26.834243-26.85338l0-267.578803c0-14.792191-12.040431-26.835154-26.834243-26.835154L353.667335 518.039879c-14.792799 0-26.835255 12.043975-26.835255 26.835154L326.83208 812.4538zM927.41098 574.734548l-55.182307 0c-48.068775 0-91.836918-41.209473-91.836918-86.460268l0-50.642926c-8.461432 2.89797-17.392375 4.819453-26.824117 4.819453L296.971244 442.450808c-9.440956 0-18.373823-1.920471-26.843356-4.826541l0 50.650009c0 47.677228-36.237735 86.460268-80.771961 86.460268L134.172611 574.734544c-47.533449 0-90.831169-41.209473-90.831169-86.460268L43.341441 29.380607c0-43.741109 41.913386-97.184812 90.831169-97.184812l60.369246 0 0-37.797532 75.594114 0 0 37.797532 529.164871 0 0-37.797532 75.595126 0 0 37.797532 52.51497 0c47.00521 0 79.768136 51.212588 79.768136 97.184812L1007.179074 488.274318C1007.179116 536.755966 972.137384 574.734548 927.41098 574.734548zM270.136011 358.904699c0 14.809404 12.042456 26.850342 26.835255 26.850342l456.596302 0c14.763436 0 26.777642-11.994462 26.824117-26.759315l0-135.488292c-0.046577-14.761815-12.060682-26.739065-26.824117-26.739065L296.971244 196.768368c-14.792799 0-26.835255 12.030812-26.835255 26.833129L270.135988 358.904663zM950.48093 29.38059c0-19.543805-13.539081-40.493106-23.070051-40.493106L134.172611-11.112517c-13.400465 0-34.135009 24.599988-34.135009 40.493106L100.037602 488.274318c0 13.903795 18.17962 29.765525 34.135009 29.765525l55.182307 0c14.874713 0 24.074889-15.456008 24.074889-29.765525l0-348.200722 83.541484 0 456.596302 0 83.522258 0 0 83.433841c0 0.037464 0.010125 0.057714 0.010125 0.094064l0 135.304136c0 0.027338-0.010125 0.06379-0.010125 0.091027L837.08985 488.274318c0 13.629601 19.044728 29.765525 35.138833 29.765525l55.182307 0c14.44064 0 23.070051-15.131187 23.070051-29.765525L950.481042 29.380607z"  horiz-adv-x="1024" />

    
    <glyph glyph-name="jujia" unicode="&#59296;" d="M975.677399 356.164998c0 59.269127-26.495537 101.766697-76.635687 122.904879-28.452742 12.000009-59.530148 14.983111-84.770398 15.825392l0 0.399901L79.613088 495.295171l0-290.364462c0-155.709897 74.385628-230.565122 142.672573-260.615217l-92.582889 0 0-50.087597 651.17453 0 0 50.087597L673.383318-55.684508c25.215996 10.304533 47.546712 25.289665 66.705456 45.084845 74.050333 76.54969 74.491633 196.798781 74.213938 211.975813C915.837219 209.284151 975.677399 265.820688 975.677399 356.164998zM703.914357 24.0462c-29.839298-30.751003-70.650082-46.33801-121.311265-46.33801l-292.89506-0.032337c-6.52998 0.357528-160.00528 11.347709-160.00528 227.254809L129.702753 445.205534l634.47697 0 0.016169-242.900427C764.228176 201.18107 766.862945 88.922082 703.914357 24.0462zM814.270405 251.529289 814.270405 444.707677c20.847249-0.773565 44.781684-3.129528 65.310715-11.787999 31.387439-13.239128 46.006655-37.62305 46.006655-76.754728C925.587776 280.291862 869.708389 256.486573 814.270405 251.529289zM263.27616 896l50.091645 0 0-333.922402-50.091645 0 0 333.922402ZM430.243626 896l50.091645 0 0-333.922402-50.091645 0 0 333.922402ZM580.515629 896l50.091645 0 0-333.922402-50.091645 0 0 333.922402Z"  horiz-adv-x="1024" />

    
    <glyph glyph-name="yiyaobaojian" unicode="&#59297;" d="M780.801528 896 271.912831 896c-48.902497 0-88.672759-39.767629-88.672759-88.645826l0-77.581324c0-48.882348 39.771274-88.647851 88.672759-88.647851l508.889701 0c48.902497 0 88.670734 39.766617 88.670734 88.647851L869.473266 807.354153C869.472262 856.232472 829.705038 896 780.801528 896zM810.651196 729.7728c0-16.44657-13.383253-29.830228-29.849668-29.830228L271.912831 699.942572c-16.469453 0-29.852706 13.383658-29.852706 29.830228L242.060125 807.354153c0 16.445557 13.383253 29.830228 29.852706 29.830228l508.889701 0c16.466415 0 29.849668-13.384671 29.849668-29.830228L810.652201 729.772829zM780.801528 621.516341 271.912831 621.516341c-48.902497 0-88.672759-39.762567-88.672759-88.644813l0-548.129516c0-48.882348 39.771274-88.647851 88.672759-88.647851l508.889701 0c48.902497 0 88.670734 39.766617 88.670734 88.647851L869.473266 532.871503C869.472262 581.753774 829.705038 621.516341 780.801528 621.516341zM810.651196-15.258021c0-16.447582-13.383253-29.830228-29.849668-29.830228L271.912831-45.088248c-16.469453 0-29.852706 13.383658-29.852706 29.830228L242.060125 532.871503c0 16.444545 13.383253 29.830228 29.852706 29.830228l508.889701 0c16.466415 0 29.849668-13.385683 29.849668-29.830228L810.652201-15.258014zM631.75954 437.809484c-7.752052 1.35892-15.508154 2.049974-23.070053 2.049974-34.810978 0-63.494006-14.771942-84.287277-33.889775-20.794284 19.117834-49.494525 33.889775-84.262977 33.889775-7.564835 0-15.321038-0.691054-23.074103-2.049974-45.262746-7.927828-79.671039-38.301482-92.05958-81.265475-14.054157-48.736644 2.220079-103.134461 41.45299-138.581512 44.384475-40.112599 93.61078-88.990897 120.052466-115.260452 7.905856-7.869101 13.899341-13.807707 17.232498-17.021283l20.428962-19.665209 20.390587 19.665209c3.217829 3.100274 8.788278 8.634069 16.162858 15.929469 26.266619 26.076263 75.190379 74.612527 121.391135 116.352266 39.290625 35.524914 55.601212 89.997658 41.530955 138.770754C711.278699 399.59508 676.930145 429.90292 631.75954 437.809484zM642.674745 261.59537c-44.460314-40.186514-91.007153-86.117228-118.51939-113.400733-27.514262 27.340106-74.904035 74.227056-118.254309 113.400733-22.324322 20.171171-32.128475 51.781229-24.372372 78.654861 3.579 12.434611 14.282787 34.127518 45.683757 39.621926 4.423958 0.776106 8.770053 1.168665 12.925892 1.168665 35.765189 0 55.409944-30.07921 58.989045-36.111778l25.333671-42.686761 25.272919 42.72625c3.561888 6.02052 23.148929 36.07229 58.955631 36.07229 4.153814 0 8.498896-0.393571 12.923867-1.168665 31.285541-5.477093 41.950852-27.063887 45.511728-39.440784C674.900321 313.522404 665.05668 281.835394 642.674745 261.59537z"  horiz-adv-x="1024" />

    
    <glyph glyph-name="tesefuwu" unicode="&#59298;" d="M512.537805 891.906765C232.773837 891.906765 5.172019 664.314266 5.172019 384.560742c0-279.736115 227.601818-507.32759 507.365786-507.32759 279.76704 0 507.368858 227.591475 507.368858 507.32759C1019.90656 664.314266 792.303718 891.906765 512.537805 891.906765zM512.537805-70.843187c-251.129651 0-455.438029 204.298957-455.438029 455.404032 0 251.120333 204.307354 455.422464 455.438029 455.422464 251.130675 0 455.443149-204.299981 455.443149-455.422464C967.979827 133.456794 763.668378-70.843187 512.537805-70.843187zM490.074214 368.368026c-2.18071 14.180966-15.551795 23.882957-29.614694 21.702246l-50.692608-7.808819L409.766912 491.654882l51.927754 0c14.33303 0 25.964339 11.629875 25.964339 25.962291 0 14.33344-11.631411 25.962291-25.964339 25.962291l-51.927754 0 0 86.539982c0 14.334464-11.619123 25.962291-25.962291 25.962291-14.344294 0-25.964339-11.627827-25.964339-25.962291l0-86.539982-34.615774 0 0 51.924603c0 14.33344-11.621171 25.962291-25.964339 25.962291-14.342246 0-25.963315-11.628851-25.963315-25.962291l0-61.676711c0-19.808154-11.89335-31.961907-20.418867-31.961907-14.34327 0-25.964339-11.628851-25.964339-25.962291 0-14.332416 11.621171-25.962291 25.964339-25.962291 26.58048 0 49.602662 16.885555 62.177587 41.715098l44.784784 0 0-117.371174-107.156787-16.496742c-14.174413-2.18071-23.894118-15.431475-21.712384-29.612442 1.968947-12.829184 13.031322-22.00617 25.624678-22.00617 1.310925 0 2.646426 0.101274 3.982848 0.303923l99.263795 15.280026 0-176.258353c0-14.335488 11.620147-25.961267 25.964339-25.961267 14.34327 0 25.962291 11.625779 25.962291 25.961267L409.769138 329.729979l58.605056 9.025536C482.536243 340.936192 492.255027 354.187981 490.074214 368.368026zM755.944141 491.654861 652.091754 491.654861l0 51.924603 86.543528 0c14.334054 0 25.963315 11.629875 25.963315 25.962291 0 14.33344-11.629363 25.962291-25.963315 25.962291l-86.543528 0 0 69.231781c0 14.334464-11.629363 25.962291-25.962291 25.962291-14.335078 0-25.963315-11.626803-25.963315-25.962291l0-69.231781-69.235641 0c-14.335078 0-25.963315-11.628851-25.963315-25.962291 0-14.332416 11.628339-25.962291 25.963315-25.962291l69.235641 0 0-51.924603-86.545574 0c-14.332006 0-25.96137-11.628851-25.96137-25.961267 0-14.33344 11.629363-25.963315 25.96137-25.963315l242.32372 0c14.335078 0 25.963315 11.629875 25.963315 25.963315C781.907558 480.02601 770.278195 491.654861 755.944141 491.654861zM755.944141 370.498458l-51.924684 0 0 34.616402c0 14.33344-11.629363 25.962291-25.964339 25.962291-14.33303 0-25.962291-11.628851-25.962291-25.962291l0-34.616402L513.619448 370.498458c-14.332006 0-25.96137-11.628851-25.96137-25.963315 0-14.332416 11.629363-25.961267 25.96137-25.961267l138.471282 0 0-123.607202c0-23.343616 0-33.01079-48.006246-33.01079-14.33303 0-25.960346-11.630899-25.960346-25.962291 0-14.334464 11.627315-25.963315 25.960346-25.963315 29.903258 0 99.932979 0 99.932979 84.936499L704.017463 318.572872l51.924684 0c14.335078 0 25.963315 11.628851 25.963315 25.961267C781.907558 358.868582 770.278195 370.498458 755.944141 370.498458zM539.583795 292.61056c-14.33303 0-25.964339-11.628851-25.964339-25.961267l0-51.924603c0-14.334464 11.631411-25.963315 25.964339-25.963315 14.335078 0 25.963315 11.628851 25.963315 25.963315l0 51.924603C565.547213 280.981709 553.918874 292.61056 539.583795 292.61056z"  horiz-adv-x="1024" />

    
    </font>
</defs>
</svg>
